<?xml version="1.0" standalone="no"?>
<!DOCTYPE svg PUBLIC "-//W3C//DTD SVG 1.1//EN" "http://www.w3.org/Graphics/SVG/1.1/DTD/svg11.dtd" >
<svg xmlns="http://www.w3.org/2000/svg">
<metadata></metadata>
<defs>
<font id="maiden_orangeregular" horiz-adv-x="1004" >
<font-face units-per-em="2048" ascent="1440" descent="-608" />
<missing-glyph horiz-adv-x="360" />
<glyph unicode="&#xfb01;" horiz-adv-x="1061" d="M39 848l4 176h140q1 108 20.5 194t66 146t125 92t198.5 32q21 0 41 -1t41 -3l-4 -176q-85 2 -142.5 -8t-93.5 -41t-52.5 -87.5t-19.5 -147.5l590 -6l-24 -868l108 -10l-6 -166l-366 16v174l84 6v674l-384 -8v-670l116 4l-6 -166h-422v176l132 4v664h-146zM701 1258 q0 26 10 49t27 40t40 27t49 10t49 -10t40 -27t27 -40t10 -49t-10 -49t-27 -40t-40 -27t-49 -10t-49 10t-40 27t-27 40t-10 49z" />
<glyph unicode="&#xfb02;" horiz-adv-x="1051" d="M39 848l4 176h140q1 108 20.5 194t66 146t125 92t198.5 32l352 -24l-24 -1296l108 -10l-6 -166l-366 16v174l84 6v1116l-70 6q-85 1 -142.5 -9t-93.5 -41.5t-52.5 -88t-19.5 -147.5h214l-10 -190l-202 8v-676l116 4l-6 -166h-422v176l132 4v664h-146z" />
<glyph horiz-adv-x="2048" />
<glyph horiz-adv-x="2048" />
<glyph unicode="&#xd;" horiz-adv-x="2048" />
<glyph unicode=" "  horiz-adv-x="360" />
<glyph unicode="&#x09;" horiz-adv-x="360" />
<glyph unicode="&#xa0;" horiz-adv-x="360" />
<glyph unicode="!" horiz-adv-x="412" d="M77 1444l252 10l-50 -1146l-130 -10zM81 114q0 26 10 49.5t27.5 41t41 27.5t49.5 10t49 -10t40 -27.5t27 -41t10 -49.5t-10 -49t-27 -40t-40 -27t-49 -10t-49.5 10t-41 27t-27.5 40t-10 49z" />
<glyph unicode="&#x22;" horiz-adv-x="546" d="M54 1440h178l-20 -426h-138zM314 1440h178l-20 -426h-138z" />
<glyph unicode="#" horiz-adv-x="1335" d="M50 480l28 136l278 12l58 240l-278 -10l28 138l284 12l82 338l150 -6l-82 -326l242 10l78 322l150 -6l-78 -310l298 14l-38 -148l-296 -10l-58 -234l306 12l-38 -146l-304 -10l-104 -420l-138 18l96 396l-246 -8l-102 -406l-138 18l94 384zM504 634l244 12l56 236 l-242 -8z" />
<glyph unicode="$" horiz-adv-x="774" d="M60 224l26 368l118 -6q7 -43 21.5 -89t40 -84t63 -62.5t89.5 -24.5q84 0 117 34.5t33 111.5q0 43 -14.5 72.5t-39 49.5t-58 34t-70.5 28q-66 23 -124.5 44.5t-102 54t-68.5 82t-25 129.5q0 124 66 191.5t184 78.5l-16 270h162l-18 -282q41 -14 68 -44t56 -78l2 132 l140 -2l-18 -408l-126 4q-7 45 -19 93t-35 87t-60 64.5t-92 25.5q-72 0 -107 -36t-35 -102q0 -47 15.5 -74.5t41.5 -45.5t61 -30t74 -26q60 -21 114.5 -45.5t95.5 -59t65.5 -84t24.5 -119.5q0 -128 -64 -202.5t-198 -79.5l14 -262h-162l18 284q-35 15 -62.5 43.5t-53.5 70.5 l-2 -124z" />
<glyph unicode="%" horiz-adv-x="1509" d="M52 1016q0 44 5.5 94.5t19 100t37.5 94.5t60.5 79.5t87 55t118.5 20.5q59 0 104.5 -22.5t78.5 -59.5t55 -84t35.5 -96.5t19 -97t5.5 -84.5q0 -42 -6 -90.5t-20 -97t-37.5 -94t-58.5 -80t-83 -55.5t-111 -21q-65 0 -113 21t-82.5 56t-57 80t-35 93.5t-17.5 97t-5 90.5z M180 1016q0 -26 2.5 -59t9.5 -68.5t20 -69.5t33.5 -61t50 -43.5t70.5 -16.5q36 0 64 17t48.5 44.5t34.5 62t22.5 70t12.5 68t4 56.5t-3 58t-10.5 70.5t-20.5 72t-33 64t-48.5 46t-66.5 17.5q-42 0 -72 -17t-51 -45t-34 -63t-20.5 -71.5t-10 -71t-2.5 -60.5zM358 0l676 1460 l122 -20l-686 -1460zM832 416q0 44 5.5 94.5t19 100t37.5 94.5t60.5 79.5t87 55t118.5 20.5q59 0 104.5 -22.5t78.5 -59.5t55 -84t35.5 -96.5t19 -97t5.5 -84.5q0 -42 -6 -90.5t-20 -97t-37.5 -94t-58.5 -80t-83 -55.5t-111 -21q-65 0 -113 21t-82.5 55.5t-57 80t-35 94 t-17.5 97.5t-5 90zM960 416q0 -26 2.5 -59t9.5 -68.5t20 -69.5t33.5 -61t50 -43.5t70.5 -16.5q36 0 64 17t48.5 44.5t34.5 62t22.5 70t12.5 68t4 56.5t-3 58t-10.5 70.5t-20.5 72t-33 64t-48.5 46t-66.5 17.5q-42 0 -72 -17t-51 -45t-34 -63t-20.5 -71.5t-10 -71t-2.5 -60.5 z" />
<glyph unicode="&#x26;" horiz-adv-x="1090" d="M32 454q0 73 22.5 139.5t61.5 123t92.5 102.5t115.5 79q-36 57 -57 119.5t-21 128.5q0 59 22 112q33 92 99.5 146t166.5 54q68 0 121.5 -23t90 -63.5t55.5 -96.5t19 -121q0 -57 -18 -105.5t-49.5 -88.5t-73.5 -72t-91 -56l214 -390q36 77 57 159t33 167l184 -60 q-9 -40 -25 -97.5t-35.5 -117.5t-41 -114t-42.5 -87l114 -178l-160 -124l-86 134q-25 -34 -62.5 -58t-80.5 -39t-88 -22t-85 -7q-41 0 -82.5 8t-79.5 22q-146 53 -218 163.5t-72 262.5zM234 464q0 -134 66.5 -207t199.5 -73q56 0 108.5 27.5t81.5 74.5l-278 482 q-86 -47 -132 -126.5t-46 -177.5zM416 1152q0 -48 20 -99t50 -87q31 10 61.5 28t54.5 43.5t39 56.5t15 66q0 57 -29 93.5t-89 36.5q-29 0 -51.5 -11.5t-38 -31t-24 -44.5t-8.5 -51z" />
<glyph unicode="'" horiz-adv-x="286" d="M54 1440h178l-20 -426h-138z" />
<glyph unicode="(" horiz-adv-x="556" d="M28 726q0 88 13.5 180.5t40.5 183.5t68.5 176.5t97 159t125.5 131.5t155 95l30 -146q-86 -62 -150 -153.5t-106.5 -196.5t-64 -217t-21.5 -215q0 -104 21.5 -215.5t64 -216.5t106.5 -196.5t150 -153.5l-40 -156q-84 38 -152.5 98.5t-123 136t-95 162t-67 178.5t-39.5 185 t-13 180z" />
<glyph unicode=")" horiz-adv-x="556" d="M-2 -58q85 62 149.5 153.5t108 196.5t65 216.5t21.5 215.5q0 103 -21.5 215t-65 217t-108 196.5t-149.5 153.5l30 146q85 -37 155.5 -95t126 -131.5t96.5 -159t68 -176.5t40.5 -183.5t13.5 -180.5t-13 -180.5t-39.5 -184.5t-67 -178.5t-95 -162t-123.5 -136t-152 -98.5z " />
<glyph unicode="*" horiz-adv-x="865" d="M55 1014l60 166l244 -138l-12 318h176l-12 -314l234 134l60 -166l-228 -104l204 -222l-146 -106l-196 262l-198 -262l-144 106l200 218z" />
<glyph unicode="+" horiz-adv-x="743" d="M58 834h236l-2 214l180 -10l4 -202l210 2l-10 -180l-198 -4l4 -228l-186 -6v232l-232 -4z" />
<glyph unicode="," horiz-adv-x="356" d="M50 114q0 26 10 49.5t27 41t40 27.5t49 10t49.5 -10t41 -27.5t27.5 -41t10 -49.5q0 -75 -35.5 -138t-98.5 -102l-52 42q12 12 28.5 33t19.5 39q-25 2 -46 13t-36.5 27.5t-24.5 38.5t-9 47z" />
<glyph unicode="-" horiz-adv-x="767" d="M71 834l628 4l-10 -180l-612 -10z" />
<glyph unicode="." horiz-adv-x="354" d="M50 114q0 26 10 49.5t27 41t40 27.5t49 10t49.5 -10t41 -27.5t27.5 -41t10 -49.5t-10 -49t-27.5 -40t-41 -27t-49.5 -10t-49 10t-40 27t-27 40t-10 49z" />
<glyph unicode="/" horiz-adv-x="867" d="M37 0l616 1460l184 -20l-648 -1460z" />
<glyph unicode="0" d="M63 704q0 75 7.5 158.5t27 164.5t53 155.5t85 130.5t123 89.5t166.5 33.5q83 0 146 -36.5t109.5 -97t78 -138t50 -159t26.5 -160t8 -141.5q0 -69 -8.5 -149t-28.5 -160t-53 -154.5t-82.5 -131.5t-116.5 -91t-155 -34q-91 0 -158 34t-115.5 91t-80 131t-50 154t-25.5 160 t-7 150zM233 704q0 -41 3.5 -97t13.5 -115.5t28.5 -118t48.5 -104.5t73.5 -74.5t102.5 -28.5q54 0 95.5 29t72 76t51.5 106t33.5 119t18 114.5t5.5 93.5q0 40 -4.5 96.5t-15.5 118t-30.5 122.5t-49.5 109t-72 78t-98 30q-61 0 -105 -29t-75 -76.5t-49.5 -107.5t-29 -121.5 t-14 -119.5t-3.5 -100z" />
<glyph unicode="1" horiz-adv-x="541" d="M44 1212l10 194l322 -10l-6 -1202l160 4l-10 -180l-462 -10l-6 186h148l-2 1022z" />
<glyph unicode="2" horiz-adv-x="931" d="M60 1434l176 4l2 -166q25 43 54 73t63.5 49.5t75 28.5t89.5 9q89 0 153.5 -34.5t106.5 -92t62 -132.5t20 -155q0 -90 -23.5 -158.5t-62 -122t-88 -95t-102.5 -78.5t-104.5 -72.5t-94.5 -76.5t-72.5 -90.5t-38.5 -114.5l396 -10l10 196l158 -10l-10 -378l-746 10 q0 134 25.5 231.5t67 169t94.5 122.5t108 91.5t108 75.5t94.5 75.5t67 91t25.5 121.5q0 46 -7 90.5t-26.5 80t-54.5 57.5t-90 22q-67 0 -114 -27.5t-77.5 -72t-46 -101.5t-18.5 -115l-158 -6z" />
<glyph unicode="3" horiz-adv-x="942" d="M64 1434l176 4l2 -166q26 43 51 75t55 53t67.5 31.5t90.5 10.5q85 0 152 -28t113.5 -78.5t71.5 -120.5t25 -153q0 -121 -59 -211t-177 -131q52 -21 95 -55.5t74.5 -78.5t49 -96.5t17.5 -109.5q0 -200 -100 -295t-296 -95q-90 0 -162 33.5t-122 90.5t-77 134t-27 164 q0 18 1 36t3 36l168 -6q0 -60 12.5 -118.5t41.5 -104.5t76 -74.5t116 -28.5q50 0 86 15t58.5 43t33 67t10.5 87q0 47 -20 95.5t-54 87.5t-79 64t-95 25l-90 -2v162h88q53 0 97 21.5t75.5 57.5t48.5 82.5t17 96.5q0 41 -10.5 79.5t-32.5 68t-55.5 47t-79.5 17.5t-80.5 -14.5 t-61 -39.5t-45.5 -58.5t-32.5 -70.5t-22 -76.5t-14.5 -76.5l-158 -6z" />
<glyph unicode="4" horiz-adv-x="872" d="M6 594l422 814h234l-6 -810l174 2l-10 -180l-166 -2l-2 -224l140 4l-10 -180l-412 -10l-6 186h118v222l-470 -6zM176 594l306 4l-2 584z" />
<glyph unicode="5" horiz-adv-x="875" d="M64 456v28l188 -6q0 -47 7 -103.5t27.5 -106t58 -83t99.5 -33.5q58 0 95 26.5t58.5 67.5t30 91t8.5 97q0 62 -16 113.5t-47.5 88t-80 56.5t-112.5 20q-36 0 -71.5 -7t-68.5 -19l-166 90l58 634l626 6l10 -384h-176v202l-302 2l-28 -378q32 8 63 11t63 3q91 0 169.5 -31 t136 -86.5t90 -133t32.5 -169.5q0 -91 -20 -174.5t-64 -147.5t-115 -102t-173 -38q-95 0 -166.5 40t-119.5 105.5t-72 149t-22 171.5z" />
<glyph unicode="6" horiz-adv-x="903" d="M71 756q0 65 5.5 141.5t21 153t42.5 147.5t71 125.5t107 87.5t149 33q76 0 138 -30t108.5 -80t75 -115.5t36.5 -136.5l-176 -20q-3 37 -15.5 73.5t-35 65.5t-54.5 47t-73 18q-48 0 -83.5 -20.5t-60 -54t-40.5 -77t-24.5 -89t-12 -90t-3.5 -79.5v-33t2 -33q48 48 108 77 t128 29q84 0 151.5 -37.5t115.5 -97.5t73.5 -136t25.5 -153q0 -92 -23 -178.5t-71 -154t-122 -108.5t-176 -41q-98 0 -164.5 37.5t-109.5 99t-66 141.5t-34 165t-12.5 169t-1.5 154zM257 462q0 -46 11 -100t35 -100.5t63.5 -78t96.5 -31.5t97 29.5t65 74.5t36.5 98t11.5 100 q0 52 -12.5 100t-39 85.5t-67.5 60t-99 22.5q-47 0 -83.5 -25.5t-62 -64.5t-39 -84.5t-13.5 -85.5z" />
<glyph unicode="7" horiz-adv-x="791" d="M26 1032l18 374h2l714 -10l14 -180l-342 -1022l142 4l-12 -180l-412 -10l-6 186h118l330 1022l-408 -2l-6 -182h-152z" />
<glyph unicode="8" horiz-adv-x="964" d="M56 382q0 55 15.5 110t45 103t71 86t94.5 59q-44 16 -78 48.5t-57.5 74t-36 88.5t-12.5 91q0 85 27.5 158t77.5 125.5t121 82.5t158 30q85 0 156 -30.5t121.5 -84t78.5 -126t28 -155.5q0 -43 -12.5 -90t-36.5 -89t-58 -75t-77 -48q52 -21 94 -59t71.5 -86t45 -103 t15.5 -110q0 -89 -35 -161.5t-93.5 -123.5t-135.5 -79t-162 -28q-89 0 -167 26t-135.5 75.5t-90.5 122.5t-33 168zM234 382q0 -52 20 -94.5t54.5 -72.5t79 -46.5t94.5 -16.5q52 0 97 15.5t78.5 45.5t53 72.5t19.5 96.5q0 119 -64.5 186.5t-183.5 67.5q-56 0 -102 -18.5 t-78.5 -52t-50 -80.5t-17.5 -103zM286 1042q0 -45 12.5 -86t37 -72t61 -49.5t85.5 -18.5t85.5 18.5t61 49.5t37 72t12.5 86q0 43 -13.5 83t-39 71.5t-61.5 50.5t-82 19q-47 0 -83 -18.5t-61.5 -50t-38.5 -72t-13 -83.5z" />
<glyph unicode="9" horiz-adv-x="902" d="M51 962q0 91 23 178t71 154.5t122.5 108.5t177.5 41q97 0 163.5 -37.5t109 -99t66 -141.5t34 -165t12 -169t1.5 -154q0 -66 -5.5 -142t-20.5 -152.5t-42.5 -147.5t-71.5 -125.5t-107 -87.5t-149 -33q-76 0 -138 29.5t-108.5 79.5t-75 115.5t-36.5 137.5l176 20 q3 -38 16 -74.5t35.5 -65t55 -46.5t73.5 -18q48 0 83 20.5t60 54t40 77t24 89t12 90t3 79.5v33t-2 31q-47 -48 -107 -76t-129 -28q-84 0 -151.5 37.5t-115.5 97.5t-73.5 136t-25.5 153zM229 980q0 -52 12.5 -100t39 -85.5t67.5 -60t99 -22.5q46 0 83 25.5t62.5 64t39 84 t13.5 86.5q0 45 -11 98.5t-35 100t-63 78t-95 31.5q-57 0 -97.5 -29t-66 -73.5t-37 -97.5t-11.5 -100z" />
<glyph unicode=":" horiz-adv-x="438" d="M92 114q0 26 10 49.5t27 41t40 27.5t49 10t49.5 -10t41 -27.5t27.5 -41t10 -49.5t-10 -49t-27.5 -40t-41 -27t-49.5 -10t-49 10t-40 27t-27 40t-10 49zM92 778q0 26 10 49t27 40t40 27t49 10t49.5 -10t41 -27t27.5 -40t10 -49t-10 -49.5t-27.5 -41t-41 -27.5t-49.5 -10 t-49 10t-40 27.5t-27 41t-10 49.5z" />
<glyph unicode=";" horiz-adv-x="440" d="M92 114q0 26 10 49.5t27 41t40 27.5t49 10t49.5 -10t41 -27.5t27.5 -41t10 -49.5q0 -75 -35.5 -138t-98.5 -102l-52 42q12 12 28.5 33t19.5 39q-25 2 -46 13t-36.5 27.5t-24.5 38.5t-9 47zM92 778q0 26 10 49t27 40t40 27t49 10t49.5 -10t41 -27t27.5 -40t10 -49 t-10 -49.5t-27.5 -41t-41 -27.5t-49.5 -10t-49 10t-40 27.5t-27 41t-10 49.5z" />
<glyph unicode="&#x3c;" horiz-adv-x="1045" d="M45 804l828 470l92 -174l-706 -374l706 -362l-92 -174l-810 442z" />
<glyph unicode="=" horiz-adv-x="813" d="M95 634l628 4l-10 -180l-612 -10zM95 1034l628 4l-10 -180l-612 -10z" />
<glyph unicode="&#x3e;" horiz-adv-x="1045" d="M80 364l706 362l-706 374l92 174l828 -470l-18 -172l-810 -442z" />
<glyph unicode="?" horiz-adv-x="909" d="M51 1434l176 4l2 -166q26 44 51 76t55 53t68.5 31t91.5 10q95 0 163.5 -34t112.5 -92t65 -135.5t21 -164.5t-20.5 -172t-64 -156t-110 -122.5t-157.5 -71.5l-30 -200h-116l-30 350h98q58 0 102.5 35t74.5 87t45.5 111.5t15.5 108.5q0 41 -8.5 90t-29 91t-55.5 70.5 t-87 28.5q-68 0 -112.5 -32t-73 -81.5t-44 -108.5t-24.5 -114l-158 -6zM285 114q0 26 10 49.5t27.5 41t40 27.5t48.5 10t49.5 -10t41 -27.5t27.5 -41t10 -49.5t-10 -49t-27.5 -40t-41 -27t-49.5 -10t-49 10t-40 27t-27 40t-10 49z" />
<glyph unicode="@" horiz-adv-x="1153" d="M72 702q0 118 34 225t100 188.5t163.5 130t224.5 48.5q124 0 218 -34t157.5 -99.5t96 -161t32.5 -217.5q0 -80 -27 -151.5t-76.5 -125.5t-118 -85.5t-150.5 -31.5l-8 68q-32 -29 -77 -48.5t-89 -19.5q-39 0 -68 12.5t-48 35t-28.5 53t-9.5 67.5q0 45 18.5 78.5t48.5 55.5 t69 33t80 11q18 0 37 -2.5t37 -7.5v36q0 10 -1.5 32t-7 44.5t-16 40t-27.5 17.5q-19 0 -36 -15.5t-31.5 -36.5t-25 -43t-15.5 -35l-118 6l-4 216l116 2v-84q7 17 19.5 33.5t28.5 29t35 20t39 7.5q48 0 79.5 -11t50.5 -33.5t26.5 -57t7.5 -82.5q0 -78 -2 -158t-10 -158 q20 0 38.5 6.5t35.5 17.5q34 21 57.5 50.5t38.5 64t21.5 73t6.5 76.5q0 205 -96 307.5t-304 102.5q-108 0 -185.5 -40t-127.5 -107.5t-73.5 -156.5t-23.5 -186q0 -101 32 -192t92 -159.5t145 -108.5t191 -40q66 0 129.5 16.5t120.5 49.5l46 -90q-68 -39 -152 -64.5 t-164 -25.5q-126 0 -228 51t-174 136.5t-111 196.5t-39 230zM514 550q0 -32 20 -48t50 -16q10 0 28 2.5t36 8t31 14.5t13 23v86q-11 11 -30.5 14.5t-33.5 3.5q-22 0 -42.5 -4.5t-36.5 -15t-25.5 -27t-9.5 -41.5z" />
<glyph unicode="A" horiz-adv-x="960" d="M-7 196l124 -4l218 1068l-102 -4l-10 170l510 10l-10 -160l-100 -4l226 -1100l124 -10l-14 -190l-406 10l-10 194l124 -4l-52 292l-264 -12l-42 -260l116 -10l-16 -180h-406zM379 620h208l-108 614z" />
<glyph unicode="B" horiz-adv-x="1010" d="M64 1434q101 11 203 14.5t205 3.5q94 0 173 -29t135.5 -83.5t88 -132.5t31.5 -175q0 -92 -41 -160.5t-119 -115.5q113 -50 173.5 -138.5t60.5 -213.5q0 -94 -34 -171t-93.5 -132.5t-139.5 -86t-171 -30.5q-118 0 -235 4t-233 10l12 194l114 -4l-2 1058l-114 -6zM370 828 q17 -2 33 -2h33h70q98 2 154 57t56 155q0 107 -59.5 166.5t-166.5 59.5h-26t-37 -0.5t-34.5 -1.5t-18.5 -2zM372 646l4 -472q42 0 85 -1t85 -1q50 0 94 17.5t77 49t52 75t19 94.5q0 61 -15.5 102.5t-42.5 68t-64 40.5t-79.5 20.5t-88.5 6.5q-15 0 -31 1l-61 -1h-34z" />
<glyph unicode="C" horiz-adv-x="1033" d="M59 716q0 76 9.5 160t31 165.5t57 155.5t88.5 130t125 89.5t165 33.5q94 0 158 -44t112 -122l2 164l176 -4l-22 -510l-158 6q-6 35 -15.5 73t-24 74t-34.5 68.5t-47 57t-61 39t-76 14.5q-63 0 -109.5 -27t-79.5 -72t-54.5 -102.5t-33.5 -117.5t-16.5 -118.5t-4.5 -104.5 q0 -43 4 -100.5t15.5 -118.5t31.5 -120.5t51.5 -106t75.5 -75.5t104 -29q73 0 122.5 32t80.5 82.5t45.5 113t19.5 124.5h158q0 -103 -25.5 -200t-78.5 -172t-134.5 -120.5t-193.5 -45.5q-86 0 -154 35t-119.5 93.5t-87.5 134t-59 156.5t-33.5 161.5t-10.5 147.5z" />
<glyph unicode="D" horiz-adv-x="1029" d="M66 1416q88 6 174.5 8t175.5 2h114q91 0 159 -34t116.5 -91t79.5 -131t49 -154.5t25 -161t7 -150.5q0 -87 -11.5 -181.5t-41 -183t-80 -164.5t-129.5 -127q-48 -32 -103.5 -49t-112.5 -17h-6l-402 6l-6 184h118l-2 1054l-114 -4zM362 162q20 -2 39 -3t39 -1q53 0 104 6 q56 9 95.5 42.5t66 82t41.5 107.5t23 118.5t10 115.5t2 98v18q0 34 -4.5 83.5t-14.5 104.5t-28 109t-44 97.5t-62.5 70.5t-84.5 27h-64h-54t-54 -2z" />
<glyph unicode="E" horiz-adv-x="953" d="M65 1222l10 194l818 10l10 -388l-148 -10l-20 206l-364 -8l-4 -446h304v-144l-306 -18l-4 -446l374 14v220h148l10 -398l-814 -20l-6 184h118l-2 1054z" />
<glyph unicode="F" horiz-adv-x="910" d="M66 1202l10 194l808 10l10 -408l-168 -10l-10 226l-354 -8l4 -456h298v-144l-296 -18l4 -404l142 -8v-178l-434 -10l-6 196h118l-2 1022z" />
<glyph unicode="G" horiz-adv-x="1028" d="M60 716q0 73 8 156t27.5 164.5t53 156t84 132t120.5 91.5t163 34q48 0 84 -11.5t65 -33t53 -52.5t48 -69l2 164l176 -4l-22 -510l-158 6q-8 49 -23.5 106.5t-42.5 106t-69.5 81t-104.5 32.5t-106.5 -27.5t-75 -73t-49.5 -103t-29 -118t-13 -118t-3 -102.5q0 -43 4 -100.5 t15.5 -118.5t31.5 -120.5t51.5 -106t75.5 -75.5t104 -29q48 0 86 19t66.5 50.5t48 72.5t31.5 85t18 89q4 37 4 70v12v20l-282 8v138l446 10q5 -54 8.5 -109t3.5 -109q0 -98 -27.5 -194.5t-82.5 -174t-136.5 -125.5t-189.5 -48q-86 0 -154 35t-119.5 93.5t-87.5 134 t-59 156.5t-33.5 161.5t-10.5 147.5z" />
<glyph unicode="H" horiz-adv-x="1194" d="M48 1216l4 180h418v-194l-106 4v-500l454 16l4 514l-134 10l4 180h426v-194l-104 4l-20 -1064h116l6 -184l-444 10v180l142 -6l6 378h-456v-356h118l4 -186l-434 10v180l142 -4l-10 1012z" />
<glyph unicode="I" horiz-adv-x="555" d="M65 1212l10 194h396l16 -180l-116 -10l-10 -1022l140 4l-10 -180l-412 -10l-6 186h118l-2 1022z" />
<glyph unicode="J" horiz-adv-x="807" d="M24 300q0 60 1 121t7 121h186q-5 -59 -8.5 -117t-3.5 -117q0 -24 5.5 -51.5t18 -51.5t33 -39.5t49.5 -15.5q43 0 69.5 17.5t41.5 46t20 64.5t5 72v892l-180 -12l-10 192l520 12v-192h-148v-900q0 -83 -19 -150t-59.5 -114.5t-103 -73.5t-150.5 -26q-69 0 -120.5 26.5 t-85.5 71.5t-51 103t-17 121z" />
<glyph unicode="K" horiz-adv-x="1032" d="M65 1212l10 194h396l16 -180l-116 -10l-4 -430l360 460l-126 16l12 174l426 -10l-16 -190h-104l-398 -500l380 -564l110 6l10 -180l-412 -20l-16 184h118l-346 526l-4 -494l140 4l-10 -180l-412 -10l-6 186h118l-2 1022z" />
<glyph unicode="L" horiz-adv-x="895" d="M65 202l124 -4l2 1024h-118l6 184h434v-178l-142 -6l-10 -1024l334 -8l10 226l168 -10l-10 -408l-788 10z" />
<glyph unicode="M" horiz-adv-x="1403" d="M35 1216l4 180h488l166 -994l240 1014l434 6l-6 -192l-130 6l-20 -1058h102l4 -190h-408l4 190h122l4 950l-252 -1032l-196 -6l-196 1036l-14 -932h118l4 -186l-464 10v180l162 -4l10 1012z" />
<glyph unicode="N" horiz-adv-x="1167" d="M57 1212l10 194h336l424 -1062v892l-126 -4l10 194h408l14 -180l-116 -10l-30 -1244l-174 -4l-450 1088l10 -882l136 4v-180l-428 -10l-6 186h118l-12 1022z" />
<glyph unicode="O" d="M64 618q0 81 6 175t24 187t50.5 179t86 152t130.5 105.5t183 39.5q84 0 146.5 -32.5t106 -87t71 -124.5t43.5 -145.5t21.5 -150t5.5 -138.5q0 -81 -5 -173t-21.5 -182t-48 -173.5t-84 -146.5t-129.5 -101t-184 -38q-84 0 -146 30.5t-106.5 81.5t-73.5 118t-46 139.5 t-23.5 146.5t-6.5 138zM252 602q0 -37 2 -84.5t9.5 -97t22.5 -97t39.5 -84.5t61.5 -60t89 -23q65 0 110 33t74.5 86.5t46 120.5t24.5 134.5t9.5 129.5t1.5 106q0 34 -2 84.5t-9 106t-21 111.5t-38.5 100.5t-61 72t-88.5 27.5q-66 0 -111.5 -35.5t-75.5 -93.5t-47 -130.5 t-25 -146.5t-9.5 -142.5t-1.5 -117.5z" />
<glyph unicode="P" horiz-adv-x="966" d="M66 1432q112 5 222 6.5t222 1.5q91 0 171 -30.5t138.5 -86t92.5 -132.5t34 -171q0 -124 -40 -208t-110.5 -135t-166 -73.5t-207.5 -23.5h-56l-4 -386l140 4l-10 -180l-412 -10l-6 186h118l-2 1048l-114 -4zM368 750h48q69 0 131.5 8.5t110.5 35.5t76 79t28 139 q0 51 -18.5 95t-50.5 76t-76 50.5t-95 18.5h-64h-86z" />
<glyph unicode="Q" d="M65 648q0 80 6 171t23 180.5t49.5 172.5t84.5 146t128 100.5t181 37.5q87 0 150.5 -34.5t108 -92t72 -131.5t43 -153t21 -157t5.5 -142q0 -54 -2.5 -116.5t-10.5 -128.5t-22 -131.5t-37 -125.5t-56 -111.5t-78 -88.5q32 -41 73.5 -79.5t86.5 -62.5l-136 -150 q-56 45 -98.5 102.5t-77.5 119.5q-27 -6 -53 -8t-53 -2q-86 0 -149.5 32.5t-109 86.5t-74.5 124t-45.5 146t-23 152.5t-6.5 142.5zM255 583q0 -25 2 -51q68 -9 125.5 -36t104 -67.5t82 -94t60.5 -114.5q38 42 60.5 106t34 135t14.5 141t3 124q0 36 -2 90t-9 114.5 t-21.5 120.5t-40 108.5t-64 78.5t-93.5 30q-65 0 -109 -34t-72 -89.5t-43.5 -125t-22.5 -140t-8 -136t-1 -111.5v-49zM285 348q10 -38 26.5 -72.5t40.5 -61.5t56 -43q31 -15 72 -15h5q-30 65 -83.5 113.5t-116.5 78.5z" />
<glyph unicode="R" horiz-adv-x="999" d="M64 1432q112 5 223.5 6.5t224.5 1.5q89 0 168 -24.5t137.5 -73.5t92.5 -122t34 -170q0 -64 -18 -127t-53 -116.5t-86 -92.5t-117 -54l146 -456l140 4l-10 -190l-362 -30l-24 184h76l-136 468h-136l-4 -468l120 6l-10 -190h-382l-16 184h118l-2 1070l-114 -4zM366 810h48 q66 0 128.5 5.5t110.5 28.5t77.5 69.5t29.5 128.5q0 51 -17.5 90t-48.5 66t-73 40.5t-91 13.5h-74h-86z" />
<glyph unicode="S" horiz-adv-x="952" d="M64 26l32 458l148 -6q9 -53 28 -110.5t50.5 -105.5t78 -79t111.5 -31q52 0 87.5 17t57.5 47t31.5 71t9.5 89q0 54 -17.5 96.5t-48.5 75t-72.5 56t-89.5 40.5q-55 19 -105.5 40t-94.5 46.5t-80.5 57t-62.5 72.5t-40.5 93t-14.5 119q0 83 25 153t72 120.5t114 78.5t151 28 q53 0 91.5 -10t68.5 -31t55 -52.5t51 -74.5l2 164l174 -4l-22 -510l-156 6q-7 37 -15.5 76.5t-22.5 76.5t-33 70.5t-45.5 58.5t-61.5 39.5t-80 14.5q-46 0 -79.5 -17.5t-55.5 -47t-32.5 -68t-10.5 -79.5q0 -58 19 -99t51.5 -70.5t75.5 -50.5t92 -38q75 -27 143 -64t120 -88 t82.5 -118.5t30.5 -155.5q0 -81 -20.5 -152.5t-62.5 -124.5t-106.5 -84t-152.5 -31q-53 0 -95 9.5t-76.5 30t-64 52.5t-56.5 76l-2 -154z" />
<glyph unicode="T" horiz-adv-x="920" d="M38 972l10 434l818 30l20 -434l-154 -20l-10 270l-166 -6l-10 -1052l140 4l-10 -180l-412 -10l-6 186h118l-2 1042l-180 -12l10 -252h-166z" />
<glyph unicode="U" horiz-adv-x="1104" d="M39 1222l10 194h396l16 -180l-116 -10q-5 -154 -12.5 -307t-7.5 -307q0 -37 1 -84.5t7 -98.5t19 -100t36.5 -87.5t59.5 -62t89 -23.5q60 0 101 30t67 79t40 111t20 125t7 122.5t1 102.5v530l-124 -4l10 194h396l14 -180l-114 -10v-534q-1 -75 -5.5 -160.5t-19.5 -169.5 t-43 -161.5t-75.5 -136.5t-117 -94.5t-167.5 -35.5q-84 0 -145 32t-103.5 85.5t-68.5 123t-40.5 144t-19.5 148.5t-5 137q0 148 6.5 295.5t11.5 296.5z" />
<glyph unicode="V" horiz-adv-x="956" d="M-10 1222l10 194h406l16 -180l-116 -10l170 -1022l188 1042l-124 -4l10 194l406 10l14 -190l-124 -10l-258 -1264l-226 12l-248 1232z" />
<glyph unicode="W" horiz-adv-x="1289" d="M9 1222l10 194h366l16 -180l-76 -10l60 -1012l156 998l-62 10l10 174l306 10l12 -164l-68 -20l148 -978l80 1012l-76 10l16 180h366l10 -194l-124 4l-148 -1262l-256 -12l-114 976l-126 -946l-274 -8l-108 1222z" />
<glyph unicode="X" horiz-adv-x="1010" d="M17 1222l10 194h406l16 -180l-116 -10l170 -378l188 378l-124 -4l10 194l406 10l14 -190l-124 -10l-276 -520l258 -544l142 6l-12 -180l-422 -10l-6 184h118l-178 388l-168 -378l132 6l-10 -180l-424 -10l-6 184h118l264 528l-262 526z" />
<glyph unicode="Y" horiz-adv-x="958" d="M-10 1222l10 194h406l16 -180l-116 -10l170 -540l188 540l-124 -4l10 194l406 10l14 -190l-124 -10l-288 -702l-4 -330l140 4l-10 -180l-412 -10l-6 186h118l-2 334l-268 698z" />
<glyph unicode="Z" horiz-adv-x="858" d="M55 982l10 434l728 4l2 -194l-544 -1032l388 2v258l156 10l10 -446l-738 -10l-6 186l542 1042l-382 -2l10 -252h-176z" />
<glyph unicode="[" horiz-adv-x="606" d="M100 -216v1864l492 20v-200l-308 10v-1526l308 20v-198z" />
<glyph unicode="\" horiz-adv-x="867" d="M30 1440l182 20l618 -1460l-154 -20z" />
<glyph unicode="]" horiz-adv-x="606" d="M14 -28l306 -20v1526l-306 -10v200l492 -20v-1864l-492 -10v198z" />
<glyph unicode="^" horiz-adv-x="750" d="M0 816l260 590l208 20l282 -600l-184 -30l-192 500l-198 -510z" />
<glyph unicode="_" horiz-adv-x="608" d="M-10 -86l628 4l-10 -180l-612 -10z" />
<glyph unicode="`" horiz-adv-x="316" d="M0 1344l186 50l130 -252l-92 -30z" />
<glyph unicode="a" horiz-adv-x="766" d="M62 278q0 68 22.5 124t63 95.5t97.5 61t125 21.5q27 0 53.5 -3.5t52.5 -12.5q2 17 2 32v32q0 9 -1 29.5t-3.5 46t-7.5 53t-13.5 50t-20 37t-28.5 14.5q-19 0 -37 -13t-34 -33.5t-29.5 -46t-24.5 -50.5t-19 -46.5t-12 -34.5l-170 8l-6 372l166 4v-146q10 26 27 54 t39.5 50.5t50 37t59.5 14.5q76 0 122.5 -23t71 -64.5t32.5 -100t8 -128.5q0 -136 -2 -271t-14 -271h108l-4 -160l-206 -20l-10 116q-21 -23 -48.5 -43.5t-59 -37t-65 -26t-65.5 -9.5q-62 0 -104.5 24.5t-68 65t-36.5 92.5t-11 106zM228 268q0 -47 25 -79.5t75 -32.5 q16 0 42.5 4.5t51 14.5t42.5 25.5t18 37.5v146q-14 20 -41.5 26t-50.5 6q-72 0 -117 -35.5t-45 -112.5z" />
<glyph unicode="b" horiz-adv-x="833" d="M9 0l2 166l132 -6l4 1092l-136 -4l-2 184h328l-10 -496q16 19 38 37.5t46.5 33t51 23t52.5 8.5q58 0 100.5 -24.5t72 -65t47.5 -92t27.5 -106t13 -107.5t3.5 -95q0 -45 -4 -104t-15.5 -121t-31 -121.5t-51 -106.5t-75.5 -76t-105 -29q-30 0 -59.5 9t-56.5 25t-49.5 37 t-38.5 45l-16 -116zM326 500q0 -94 1 -188q0 -29 8 -54.5t24 -45t39 -31t53 -11.5q38 0 64 21t43 55t26 76.5t13.5 84.5t5 80t0.5 63q0 38 -3.5 89t-18.5 96.5t-45 77t-83 31.5q-27 0 -50 -15.5t-39.5 -39t-25.5 -51t-9 -50.5q-3 -81 -3 -161v-27z" />
<glyph unicode="c" horiz-adv-x="738" d="M51 512q0 48 6 105.5t20.5 115.5t38.5 113t59.5 97t83 67.5t110.5 25.5q50 0 95 -26t77 -64l20 86l126 -10l-10 -410l-162 4q-1 28 -7.5 70.5t-21.5 83t-41 69.5t-66 29q-32 0 -54.5 -21t-37.5 -54t-24 -74t-13.5 -81t-5.5 -74.5t-1 -55.5q0 -23 0.5 -57.5t4 -73t11 -77 t23 -69.5t39 -50t58.5 -19q41 0 68 28t43.5 67.5t23 82.5t7.5 74h160q-1 -68 -18 -142t-53.5 -136.5t-93.5 -103t-137 -40.5q-70 0 -121.5 23t-88 62.5t-59.5 92t-36 110t-18 117.5t-5 115z" />
<glyph unicode="d" horiz-adv-x="831" d="M51 512q0 46 6 103.5t20.5 116.5t38 115t58 100t81.5 70.5t108 26.5q47 0 89.5 -24.5t66.5 -63.5v326h-180v172l366 -6l-16 -1288l132 4v-166l-268 -8l-14 116q-33 -54 -88 -85t-118 -31q-62 0 -106.5 26t-76 69t-51 98t-30 113t-14.5 114t-4 102zM237 471q0 -34 3 -73.5 t10.5 -80t21.5 -73.5t36 -53.5t55 -20.5q25 0 48 14.5t42 36t33.5 45.5t22.5 44l4 426q-6 18 -17 40t-26.5 41.5t-35 33t-41.5 13.5q-33 0 -57.5 -19t-41.5 -49t-28.5 -67.5t-17.5 -75t-8.5 -71t-2.5 -56.5v-55z" />
<glyph unicode="e" horiz-adv-x="718" d="M53 544q0 48 5.5 104t18.5 111t35.5 106t56.5 89.5t81 62t109 23.5q106 0 167 -33.5t92.5 -92t40 -138t8.5 -170.5q0 -82 -6 -160l-430 -8q0 -21 2 -50.5t6.5 -62t13 -64t22.5 -57t34.5 -41t49.5 -15.5q31 0 53.5 16.5t37 41t22.5 53.5t11 55h174q-9 -57 -30 -115 t-56 -105t-85 -76.5t-117 -29.5q-70 0 -120.5 26.5t-85.5 70.5t-57 101.5t-33.5 119t-15.5 123.5t-4 115zM229 582h258q6 42 6 82q0 30 -3.5 68t-16 72t-36.5 57t-64 23q-35 0 -59 -15.5t-40 -40.5t-25 -57.5t-13 -66t-5.5 -65.5t-1.5 -57z" />
<glyph unicode="f" horiz-adv-x="528" d="M39 848l4 176h140q1 108 20.5 194t66 146t125 92t198.5 32q21 0 41 -1t41 -3l-4 -176h-28q-67 0 -115 -8q-57 -10 -93 -41t-52.5 -87.5t-19.5 -147.5h134l-10 -190l-122 8v-676l116 4l-6 -166h-422v176l132 4v664h-146z" />
<glyph unicode="g" horiz-adv-x="721" d="M46 -122q0 74 30.5 138.5t93.5 105.5q-18 29 -32 61t-14 65q0 35 18 68t48 50q-34 25 -58.5 64t-41 83.5t-24.5 91t-8 87.5q0 80 18 146.5t56 114.5t97.5 74.5t142.5 26.5q22 0 39.5 -2t33.5 -6.5t32 -11t35 -16.5l126 160l122 -120l-156 -138q20 -53 27 -116.5t7 -119.5 q0 -74 -17.5 -136.5t-54 -110t-93 -77.5t-133.5 -38q-8 -5 -17.5 -12t-17.5 -15.5t-13.5 -18.5t-5.5 -20q0 -9 6 -21.5t14 -24.5t16.5 -23t13.5 -17q67 0 132.5 -13t117 -44.5t83 -83.5t31.5 -131q0 -67 -31.5 -122.5t-82 -96t-113.5 -63t-125 -22.5q-65 0 -120.5 19.5 t-96 56t-63 89t-22.5 119.5zM218 -118q0 -32 16 -54t40 -35.5t53.5 -20t56.5 -6.5q28 0 56 9.5t50.5 27.5t36 43t13.5 56q0 35 -19 59t-47.5 39t-62 21.5t-61.5 6.5q-66 0 -99 -41.5t-33 -104.5zM224 702q0 -27 5.5 -64t19 -71t37 -57.5t60.5 -23.5q35 0 59 22.5t39 55 t21.5 68.5t6.5 64t-6.5 61.5t-21.5 62t-39 47.5t-59 19q-41 0 -65 -16.5t-36.5 -43t-16.5 -59.5t-4 -65z" />
<glyph unicode="h" horiz-adv-x="836" d="M-26 1298l4 170l310 10l6 -568q17 29 42 54t55 43t64 28.5t69 10.5q45 0 77 -15.5t54 -41t34.5 -60t19.5 -72t9 -76t2 -73.5q0 -142 -3.5 -282t-6.5 -282l102 -8l-20 -162l-336 16l-4 160l88 10q3 139 5.5 276t2.5 276q0 25 -4.5 51t-15.5 47.5t-30.5 35.5t-49.5 14 t-53.5 -14.5t-41 -37.5t-30 -53t-20.5 -61t-12 -60.5t-5 -51.5q-5 -106 -6.5 -211t-3.5 -211h88l10 -162l-346 -4v186l98 4l-6 1104z" />
<glyph unicode="i" horiz-adv-x="457" d="M23 844l4 174h322l-24 -868l108 -10l-6 -166l-366 16v174l84 6v674h-122zM97 1258q0 26 10 49t27 40t40 27t49 10t49 -10t40 -27t27 -40t10 -49t-10 -49t-27 -40t-40 -27t-49 -10t-49 10t-40 27t-27 40t-10 49z" />
<glyph unicode="j" horiz-adv-x="401" d="M-183 -408l4 176h29q66 0 114 8q59 9 95 39.5t52 87.5t16 149v808l-116 -6l6 166l298 2l-6 -970q-1 -107 -20.5 -193t-67 -146t-126.5 -92.5t-198 -32.5q-20 0 -40 1t-40 3zM75 1258q0 26 10 49.5t27 41t40 27.5t49 10t49.5 -10t41 -27.5t27.5 -41t10 -49.5t-10 -49 t-27.5 -40t-41 -27t-49.5 -10t-49 10t-40 27t-27 40t-10 49z" />
<glyph unicode="k" horiz-adv-x="831" d="M-3 1274l4 176h302l-6 -864l216 286h-82l-14 150l384 16l6 -166l-118 -4l-248 -326l290 -372l84 -6l-4 -164h-338v160h70l-198 262l-52 -70l-4 -184l118 -10l-6 -166l-366 16v174l84 6v1086h-122z" />
<glyph unicode="l" horiz-adv-x="429" d="M-3 1264l4 176h322l-24 -1272l108 -10l-6 -166l-366 16v174l84 6v1076h-122z" />
<glyph unicode="m" horiz-adv-x="1241" d="M23 852l4 170l288 10l6 -142q16 31 40.5 59t54.5 48.5t64 32.5t71 12q39 0 67.5 -11t49 -32t34 -50t21.5 -65q19 29 42.5 54.5t51.5 44t60 29t68 10.5q67 0 104.5 -33t56 -82.5t23 -108t4.5 -108.5q0 -133 -3.5 -264t-6.5 -264h82l-10 -160l-316 -16l-4 172l78 10 q3 133 5.5 264t2.5 264q0 22 -4 47t-14 46t-27.5 35t-44.5 14q-29 0 -53 -15t-41.5 -37.5t-27.5 -50.5t-10 -53q-2 -133 -4.5 -265t-5.5 -265l82 -10l-20 -160l-306 14l6 162l68 10q3 137 5.5 274t2.5 274q0 22 -4 47t-14 46t-27.5 35t-44.5 14q-44 0 -71.5 -25t-42.5 -62 t-21 -78.5t-7 -74.5q-5 -113 -6 -225t-4 -225h78v-162l-326 -4v184l98 6l-6 650z" />
<glyph unicode="n" horiz-adv-x="886" d="M23 852l4 170l288 10l6 -142q20 30 47.5 57.5t60.5 48.5t69.5 33.5t74.5 12.5q45 0 77 -15t54 -41t34.5 -59.5t19.5 -71t9 -76t2 -73.5q0 -139 -3.5 -277t-6.5 -277l102 -10l-20 -160l-336 14l-4 162l88 10q3 136 5.5 271t2.5 271q0 24 -4.5 50t-15.5 48t-30.5 36 t-49.5 14q-44 0 -74.5 -24.5t-49.5 -60.5t-28 -78t-10 -77q-5 -113 -6 -225t-4 -225h88l10 -162l-346 -4v184l98 6l-6 650z" />
<glyph unicode="o" horiz-adv-x="737" d="M50 476q0 50 6 112t20.5 125.5t39 123.5t61 106.5t86.5 74.5t117 28q61 0 107.5 -24t81 -64t57 -92t36.5 -107.5t20 -111.5t6 -103q0 -50 -6 -111t-21 -123.5t-39.5 -122t-61.5 -105.5t-86.5 -74t-115.5 -28q-62 0 -109 23.5t-81 62t-57 89.5t-36.5 106t-19 111t-5.5 104 zM210 474q0 -21 2 -53.5t8 -69.5t16.5 -73.5t26.5 -66.5t39 -48.5t54 -18.5q38 0 65.5 23t47 59.5t31.5 81.5t18.5 90.5t9 85.5t2.5 66q0 21 -2 54t-7.5 70t-15.5 74t-26 67t-39.5 48.5t-55.5 18.5q-39 0 -66.5 -23.5t-47 -60.5t-31.5 -82.5t-18.5 -91t-8.5 -85.5t-2 -65z " />
<glyph unicode="p" horiz-adv-x="823" d="M11 858v164l268 10l14 -116q16 24 39 45t50 37t57 25t60 9q56 0 98 -27.5t72 -72t50 -101t31.5 -114.5t16 -112.5t4.5 -94.5q0 -49 -4.5 -107t-16 -116t-33 -112.5t-55 -96.5t-81 -67t-112.5 -25q-50 0 -91.5 29t-64.5 71v-338l90 -2v-158h-382l6 170l104 -4l12 1108z M317 334q0 -23 8.5 -53.5t24.5 -57.5t38.5 -46t50.5 -19q37 0 63.5 18t43.5 47t27 65.5t15 74.5t6 73t1 60q0 22 -1 57.5t-5.5 75t-13.5 79.5t-25 72t-40.5 52t-58.5 20q-31 0 -54.5 -11t-39.5 -30.5t-24.5 -45.5t-9.5 -55q-2 -94 -4 -187.5t-2 -188.5z" />
<glyph unicode="q" horiz-adv-x="833" d="M53 482v28q0 41 5.5 95.5t18 112.5t33.5 114.5t52 100.5t74 71.5t99 27.5q30 0 59.5 -9t56 -24.5t48.5 -36.5t38 -46l18 116l268 -10l-4 -164l-132 4l-6 -1108l102 4l4 -170h-382l2 158l90 2l6 338q-11 -21 -28 -39.5t-37.5 -32t-43.5 -21t-47 -7.5q-63 0 -109.5 23.5 t-79.5 62.5t-53.5 90t-32 106t-16.5 110q-3 46 -3 86v18zM227 472q0 -25 1.5 -57.5t6.5 -67.5t15 -69t26.5 -60.5t41.5 -43t61 -16.5q28 0 50.5 19t39 46t25.5 57.5t9 53.5q2 95 2 188.5v187.5q0 28 -8.5 54t-24.5 45.5t-39.5 31t-53.5 11.5q-36 0 -61 -22t-41.5 -56.5 t-26.5 -77t-15 -85t-6.5 -79.5t-1.5 -60z" />
<glyph unicode="r" horiz-adv-x="599" d="M23 -6l14 190l132 6l14 644l-106 -4l-6 184l268 26v-138q21 17 49 37t59 38t62.5 32.5t59.5 20.5v-230q-38 -8 -74 -27t-64 -46.5t-45 -63t-17 -77.5q0 -100 -1 -198t-3 -198l146 -6v-180z" />
<glyph unicode="s" horiz-adv-x="694" d="M59 -10l10 332l192 -2q-2 -12 -3 -25t-1 -25q0 -24 6 -46.5t18 -40.5t31.5 -28.5t46.5 -10.5q19 0 35.5 9.5t28 24.5t18 33t6.5 35q0 43 -19.5 76.5t-49.5 60.5t-66 48.5t-69 38.5q-54 28 -89.5 59t-56.5 68.5t-29.5 83.5t-8.5 105q0 55 21.5 102t58.5 81.5t85.5 53.5 t102.5 19q50 0 91 -27t71 -63l22 86l126 -10l-10 -332l-192 2q2 12 3 25t1 25q0 24 -6 46.5t-18 40.5t-31.5 28.5t-46.5 10.5q-19 0 -35 -9.5t-28 -24.5t-18.5 -33t-6.5 -35q0 -44 18.5 -78t47 -61t64 -48.5t70.5 -38.5q52 -27 87.5 -58t58 -69t32.5 -84t10 -103 q0 -56 -21.5 -102.5t-58.5 -81t-85.5 -53.5t-102.5 -19q-50 0 -91 27t-71 63l-22 -86z" />
<glyph unicode="t" horiz-adv-x="610" d="M40 838v180h156l12 348h190l-8 -348h176l-4 -180h-176q-3 -134 -5.5 -268t-2.5 -270q0 -32 12.5 -56t33.5 -40.5t48 -25t56 -8.5h17t17 2v-178q-48 -12 -98 -12q-65 0 -117 23.5t-88 64t-55.5 94.5t-19.5 116q0 140 2.5 279t5.5 279h-152z" />
<glyph unicode="u" horiz-adv-x="863" d="M24 880l20 160l258 -14q-5 -180 -9.5 -356t-4.5 -356q0 -23 5 -48t16.5 -45.5t30.5 -33.5t48 -13q44 0 74.5 24.5t49.5 60.5t27.5 78t10.5 77q6 110 7 220t3 220h-88l-10 162l270 4l-16 -850l146 -10l-4 -170l-288 -10l-6 162q-20 -30 -47.5 -57.5t-60 -48.5t-69 -33.5 t-73.5 -12.5q-46 0 -78 15t-54 41t-35 59.5t-20 71t-9 76t-2 73.5q0 136 3.5 271.5t6.5 272.5z" />
<glyph unicode="v" horiz-adv-x="794" d="M-3 872l10 170l336 -4l4 -162l-88 -8l138 -676l146 666l-88 10l-10 160l346 4v-184l-96 -6l-190 -844l-226 -6l-190 880h-92z" />
<glyph unicode="w" horiz-adv-x="1052" d="M3 862l10 170l316 -4l4 -162l-68 -8l78 -666l94 676h-40l10 160h256l12 -160h-42l98 -676l86 676h-78l10 160l286 4l10 -164l-76 -6l-130 -874l-226 -6l-80 696l-82 -680l-226 -6l-130 870h-92z" />
<glyph unicode="x" horiz-adv-x="835" d="M27 140l96 10l204 354l-204 354l-96 10l4 164l356 -4v-164l-82 -6l114 -198l114 198l-82 6v164l356 4l4 -164l-94 -10l-210 -354l210 -364l94 -10l-4 -156l-356 4v166l82 6l-116 200l-112 -190l82 -6v-164l-356 -6z" />
<glyph unicode="y" horiz-adv-x="790" d="M-7 872l10 170l336 -4l4 -162l-88 -8l158 -604l116 594l-78 10l-10 160l346 4v-184l-96 -6l-238 -1080l82 -4v-166l-344 -4l-6 156l96 10l56 240l-252 878h-92z" />
<glyph unicode="z" horiz-adv-x="706" d="M51 1032l594 -4v-164l-392 -704l238 4l2 132l156 -8l-4 -284l-584 -4v164l392 694l-238 -4v-120h-158z" />
<glyph unicode="{" horiz-adv-x="564" d="M-14 638v158q48 1 81.5 20t56 49.5t35.5 70t19.5 81.5t8 83.5t1.5 75.5q0 88 23.5 167.5t69.5 144.5t113.5 111.5t155.5 68.5l30 -180q-68 -12 -110.5 -42.5t-66.5 -74t-32.5 -96.5t-8.5 -111q0 -35 -2.5 -78t-9.5 -87.5t-20 -89t-33.5 -82.5t-49.5 -67.5t-69 -43.5 q54 -26 89.5 -66t57 -89.5t32 -105t15 -113t4.5 -114.5t2 -108q1 -37 14 -68t36 -54t54 -37t68 -15l-40 -180q-64 11 -120 41.5t-98 75.5t-67 103t-27 124q-2 52 -0.5 106.5t-0.5 107.5t-11.5 102.5t-32.5 90.5t-63 72.5t-104 48.5z" />
<glyph unicode="|" horiz-adv-x="375" d="M99 -206v1822h182l-10 -1822h-172z" />
<glyph unicode="}" horiz-adv-x="564" d="M-16 1488l30 180q103 -26 172.5 -79t111.5 -125t60 -159.5t18 -184.5q0 -32 3.5 -68t12.5 -72t24 -68.5t37.5 -58t53 -41t71.5 -16.5v-158q-64 -17 -104 -48.5t-63 -72.5t-32.5 -90.5t-11.5 -102.5t-1 -107.5t0 -106.5q-2 -66 -27.5 -124t-67.5 -103t-97.5 -75.5 t-119.5 -41.5l-40 180q54 2 87.5 22.5t53 52.5t27 73t9.5 85t1 87.5t2 79.5q4 58 13 113t29.5 103t56 87t93.5 67q-60 22 -96.5 75t-56 118.5t-25.5 133.5t-6 121q0 58 -9 111t-33 96.5t-66.5 74t-109.5 42.5z" />
<glyph unicode="~" horiz-adv-x="940" d="M44 772q22 23 54.5 49.5t68.5 49t74 37t73 14.5q46 0 85 -19.5t77 -42.5t78 -42.5t90 -19.5q25 0 52 8t52.5 21t48 29.5t39.5 33.5l70 -128q-22 -24 -52.5 -50.5t-65.5 -48.5t-72.5 -36.5t-71.5 -14.5q-47 0 -90.5 19.5t-84 42.5t-80 42.5t-79.5 19.5q-21 0 -49.5 -16 t-57 -37.5t-52.5 -43.5t-37 -35z" />
<glyph unicode="&#xa1;" horiz-adv-x="413" d="M78 1166q0 26 10 49.5t27 41t40 27.5t49 10t49.5 -10t41 -27.5t27.5 -41t10 -49.5t-10 -49t-27.5 -40t-41 -27t-49.5 -10t-49 10t-40 27t-27 40t-10 49zM84 -172l50 1146l130 10l72 -1146z" />
<glyph unicode="&#xa2;" horiz-adv-x="854" d="M56 714q0 81 14 162.5t48 150.5t91 118.5t143 66.5l-16 274h162l-16 -270q57 -9 98 -42.5t74 -87.5v132l140 -2l-18 -408l-124 4q-8 42 -22 88t-38.5 85t-60.5 64t-87 25t-88 -16t-63 -43t-42.5 -62.5t-26 -75t-13 -80t-3.5 -77.5q0 -35 3.5 -75t12 -80t24.5 -77 t40.5 -65.5t60 -45.5t83.5 -17q59 0 99 22.5t64.5 60t36.5 84.5t16 97h124q0 -75 -17 -144t-52 -124.5t-89.5 -93t-129.5 -48.5l14 -262h-162l18 266q-82 17 -138.5 69t-92 122t-51.5 150.5t-16 154.5z" />
<glyph unicode="&#xa3;" horiz-adv-x="804" d="M79 350l36 -4q16 38 29 77q11 33 22 72.5t15 74.5l-96 -2l-6 126h82q-11 25 -25.5 48.5t-27 48t-21 52t-8.5 61.5q0 70 16.5 132t51.5 108.5t89.5 74t130.5 27.5q43 0 74 -8.5t55 -25t44 -42.5t41 -60l2 132l140 -4l-18 -406l-126 4q-7 43 -19 91t-34.5 87.5t-58.5 65.5 t-90 26q-42 0 -70 -22.5t-45 -56.5t-24 -73.5t-7 -73.5q0 -30 7.5 -53.5t18 -44.5t22.5 -41.5t22 -44.5l166 2l-10 -120l-134 -4q-2 -35 -13.5 -75t-24.5 -74q-15 -40 -34 -79l332 -6l8 182l134 -8l-8 -328l-630 8z" />
<glyph unicode="&#xa4;" horiz-adv-x="587" d="M0 852l128 134l76 -76q21 8 43.5 13t46.5 5q23 0 45.5 -4t43.5 -12l73 74l122 -134l-63 -65q19 -46 19 -97q0 -24 -4 -46t-12 -43l69 -74l-134 -120l-59 63q-42 -18 -92 -18q-52 0 -95 18l-69 -72l-134 128l71 72q-17 42 -17 88q0 49 17 92zM174 682q0 -54 35.5 -85 t88.5 -31q29 0 51.5 10.5t37.5 28.5t23 42t8 51q0 56 -36 87t-90 31q-28 0 -50 -11t-37 -29.5t-23 -43t-8 -50.5z" />
<glyph unicode="&#xa5;" horiz-adv-x="890" d="M53 1054l8 156h326l12 -144l-94 -8l136 -336l150 336l-98 -4l8 156l324 8l12 -152l-100 -8l-138 -282l100 2l-8 -128l-156 -2l-28 -64l192 2l-8 -128l-186 -2l-2 -98l114 4l-8 -144l-330 -8l-6 148h94v94l-166 -2l-4 132l170 2l-24 60l-142 -2l-4 132l86 2l-130 282z" />
<glyph unicode="&#xa6;" horiz-adv-x="386" d="M103 -206v802h176l-4 -802h-172zM103 834v782h182l-4 -782h-178z" />
<glyph unicode="&#xa7;" horiz-adv-x="939" d="M60 -146l32 460l148 -6q9 -54 28 -111.5t50.5 -105.5t78 -78.5t111.5 -30.5q52 0 87.5 17t57.5 47t31.5 70.5t9.5 87.5q0 55 -17.5 97.5t-48.5 75.5t-72.5 56.5t-89.5 40.5q-30 11 -59.5 20.5t-58.5 21.5q-52 22 -89 50.5t-61.5 66t-38.5 83.5t-19 102v26q0 35 5.5 70 t16.5 68q-53 57 -73.5 121t-20.5 141q0 82 25 151.5t72 120t114 78.5t151 28q53 0 91.5 -10t68.5 -31t55 -52.5t51 -74.5l2 164l174 -4l-22 -508l-156 6q-7 37 -16 76.5t-22 76.5t-32.5 70.5t-45.5 58.5t-61.5 39.5t-80.5 14.5q-46 0 -79.5 -18t-55.5 -48t-32.5 -68.5 t-10.5 -79.5q0 -58 19 -99t51.5 -70.5t75.5 -50.5t92 -38q76 -27 136.5 -61t102.5 -81.5t64.5 -111.5t22.5 -150q0 -33 -6.5 -66.5t-17.5 -65.5q38 -50 56 -108.5t18 -121.5q0 -82 -20.5 -153.5t-62.5 -125t-106.5 -84.5t-152.5 -31q-53 0 -95 10t-76.5 31t-64 53t-56.5 76 l-2 -154zM330 824q0 -39 13.5 -69t36 -52.5t52.5 -39t64 -29.5q39 -14 76 -29t72 -35v8q0 55 -11.5 93t-32.5 64t-50.5 43t-64.5 30.5t-74 26.5t-79 31q-2 -11 -2 -21v-21z" />
<glyph unicode="&#xa8;" horiz-adv-x="482" d="M0 1242q0 44 30 74t74 30q22 0 40 -8.5t31 -22.5t20 -33t7 -40q0 -44 -29 -74t-73 -30q-21 0 -39.5 8.5t-32 23t-21 33.5t-7.5 39zM300 1242q0 39 26.5 66.5t65.5 27.5t64.5 -27.5t25.5 -66.5t-26.5 -65.5t-65.5 -26.5t-64.5 27t-25.5 65z" />
<glyph unicode="&#xa9;" horiz-adv-x="1181" d="M64 704q0 59 9 126t32.5 132t63.5 124.5t101.5 104.5t147.5 72t200 27q99 0 175 -29.5t131.5 -78t92.5 -110.5t59.5 -127t32 -128t9.5 -113q0 -56 -10 -120t-34 -128.5t-63.5 -124t-98.5 -105t-139 -73t-185 -27.5q-109 0 -190 27.5t-139.5 73t-96 104.5t-59.5 123.5 t-30.5 129t-8.5 120.5zM168 700q0 -36 5.5 -85t21.5 -101.5t45 -103.5t76 -91.5t114.5 -65.5t159.5 -25q84 0 148.5 25.5t112.5 66.5t80 93t52 104.5t28.5 100.5t8.5 82q0 35 -6.5 84.5t-24 103.5t-47.5 107.5t-76.5 95.5t-112 68.5t-153.5 26.5q-95 0 -164 -25.5t-117 -67 t-77.5 -94t-46 -106.5t-22 -105t-5.5 -88zM310 696q0 55 12 116.5t42 114t81.5 87t130.5 34.5q53 0 89 -21t63 -59v78h98l-12 -246l-88 4q-5 25 -14.5 52.5t-27 50.5t-43 38t-61.5 15q-53 0 -85 -28.5t-49.5 -69t-23.5 -85t-6 -77.5q0 -32 5.5 -77t22 -86.5t47.5 -71 t81 -29.5q41 0 69 15.5t45 39.5t25.5 54t10.5 59h88q0 -49 -14 -95.5t-43.5 -82.5t-75 -58t-107.5 -22q-73 0 -122.5 36.5t-80 90t-44 114t-13.5 109.5z" />
<glyph unicode="&#xaa;" horiz-adv-x="612" d="M86 674l448 4l-10 -140l-432 -10zM86 974q0 42 15 76.5t42 58.5t64.5 37.5t82.5 13.5q28 0 58 -6v24q0 7 -0.5 27t-3.5 41.5t-10.5 38.5t-21.5 17q-17 0 -31.5 -15.5t-26.5 -36.5t-20 -43t-12 -35l-126 6l-4 234l126 2v-54q17 24 42 42t58 18q52 0 83 -15t47.5 -40.5 t22 -61t5.5 -75.5q0 -77 -1 -154t-9 -152h68l-4 -112l-148 -14l-6 58q-29 -23 -66.5 -39.5t-75.5 -16.5q-42 0 -70.5 15.5t-45.5 41t-24.5 56.5t-7.5 63zM212 968q0 -24 13 -40t39 -16q9 0 23.5 2t28.5 6.5t24 12.5t10 19v82q-6 6 -20 9t-26 3q-44 0 -68 -18.5t-24 -59.5z " />
<glyph unicode="&#xab;" horiz-adv-x="1244" d="M12 548l570 336l68 -160l-454 -236l454 -226l-68 -160l-558 318zM552 548l570 336l68 -160l-454 -236l454 -226l-68 -160l-558 318z" />
<glyph unicode="&#xac;" horiz-adv-x="789" d="M66 834l628 4v-418h-170l8 236l-460 -8z" />
<glyph unicode="&#xad;" horiz-adv-x="767" d="M71 834l628 4l-10 -180l-612 -10z" />
<glyph unicode="&#xae;" horiz-adv-x="1181" d="M64 704q0 59 9 126t32.5 132t63.5 124.5t101.5 104.5t147.5 72t200 27q99 0 175 -29.5t131.5 -78t92.5 -110.5t59.5 -127t32 -128t9.5 -113q0 -56 -10 -120t-34 -128.5t-63.5 -124t-98.5 -105t-139 -73t-185 -27.5q-109 0 -190 27.5t-139.5 73t-96 104.5t-59.5 123.5 t-30.5 129t-8.5 120.5zM168 700q0 -36 5.5 -85t21.5 -101.5t45 -103.5t76 -91.5t114.5 -65.5t159.5 -25q84 0 148.5 25.5t112.5 66.5t80 93t52 104.5t28.5 100.5t8.5 82q0 35 -6.5 84.5t-24 103.5t-47.5 107.5t-76.5 95.5t-112 68.5t-153.5 26.5q-95 0 -164 -25.5t-117 -67 t-77.5 -94t-46 -106.5t-22 -105t-5.5 -88zM350 1044q62 2 124.5 3t125.5 1q50 0 94 -12t77 -35.5t52 -59t19 -81.5q0 -31 -10 -61.5t-29.5 -56t-48.5 -43.5t-66 -25l82 -220l78 2l-4 -92l-204 -14l-14 88h44l-76 226h-76l-4 -224l68 2l-6 -92h-214l-8 90h66l-2 512l-64 -2z M518 746q8 -2 14 -2h14q37 0 71.5 3t61.5 14t43 33.5t16 61.5q0 50 -37 76t-91 26h-40h-25t-25 -2z" />
<glyph unicode="&#xaf;" horiz-adv-x="412" d="M0 1266l10 124h392l10 -134z" />
<glyph unicode="&#xb0;" horiz-adv-x="536" d="M30 1176q0 50 18 94t49.5 77t75 52t93.5 19q51 0 95 -18t76 -49.5t50.5 -75t18.5 -95.5q0 -50 -17.5 -93t-49 -75.5t-74 -51t-91.5 -18.5q-50 0 -94 17.5t-77.5 49t-53 74.5t-19.5 93zM146 1172q0 -54 35.5 -85t88.5 -31q29 0 51.5 10.5t37.5 28.5t23 42t8 51 q0 56 -36 87t-90 31q-28 0 -50 -11t-37 -29.5t-23 -43t-8 -50.5z" />
<glyph unicode="&#xb1;" horiz-adv-x="778" d="M72 294l628 4l-10 -180l-612 -10zM80 834h236l-2 214l180 -10l4 -202l210 2l-10 -180l-198 -4l4 -228l-186 -6v232l-232 -4z" />
<glyph unicode="&#xb2;" horiz-adv-x="690" d="M56 1462l134 2v-88q36 45 82 64.5t112 19.5q64 0 110 -21t76 -56t44 -80.5t14 -94.5q0 -56 -16.5 -97.5t-43.5 -74.5t-62 -58.5t-72 -47.5q-36 -21 -72 -41.5t-68 -46.5q-29 -24 -48.5 -51.5t-27.5 -62.5l268 -6l6 118l122 -6l-8 -238l-532 6q0 83 18 143.5t47 104 t66.5 74.5t76.5 56q35 21 72.5 42.5t69.5 47.5q29 24 45.5 53t16.5 71q0 27 -4.5 53t-18 47t-37 33.5t-60.5 12.5q-45 0 -77 -16t-53 -43t-31.5 -61t-12.5 -70l-120 -4z" />
<glyph unicode="&#xb3;" horiz-adv-x="678" d="M48 1456l134 2v-88q17 22 34 39t38 28.5t47.5 17t62.5 5.5q60 0 108 -17t81 -48t51 -73.5t18 -93.5q0 -72 -38.5 -126t-115.5 -80q34 -14 62 -34.5t48.5 -47t32 -57.5t11.5 -65q0 -122 -71.5 -180t-210.5 -58q-64 0 -115 20t-87 55t-55 82t-19 101v22t2 26l126 -4 q0 -38 9 -73t28.5 -62.5t51.5 -44t79 -16.5q69 0 97.5 33t28.5 89q0 28 -13.5 56t-36 50.5t-53.5 37t-65 14.5h-68v106h68q36 0 66 12.5t51 33.5t33 48t12 56q0 24 -7 46.5t-22 39.5t-37.5 27.5t-53.5 10.5q-47 0 -77.5 -18.5t-50 -48t-30.5 -65.5t-18 -70l-120 -4z" />
<glyph unicode="&#xb4;" horiz-adv-x="316" d="M0 1142l130 252l186 -50l-222 -232z" />
<glyph unicode="&#xb5;" horiz-adv-x="957" d="M54 -506q45 344 89.5 683t94.5 683l-102 6l40 162l258 -6q-27 -180 -55 -357t-49 -357q-2 -8 -2 -15v-15q0 -21 4 -40.5t14 -34.5t26 -24t40 -9q43 0 76.5 25.5t57.5 63t38.5 81t21.5 78.5q20 110 34.5 221t29.5 221l-88 -2l10 160l270 16l-122 -854l146 -6l-26 -170 l-290 -22l16 162q-26 -32 -59.5 -63t-72.5 -54t-81 -36t-85 -9l-64 -480z" />
<glyph unicode="&#xb6;" horiz-adv-x="1218" d="M49 1020q0 95 35 172.5t95.5 132.5t141 85t172.5 30q107 0 212 -4t212 -4q50 0 100 2t100 2l16 -190l-116 -10l-10 -1042l132 -6l-12 -180h-362l-4 186h76v1042q-93 6 -182 6l-2 -1048h68l-6 -186h-362v180l130 6l-4 390q-101 9 -180.5 39t-135 83t-85 131t-29.5 183z M235 1012q0 -56 16 -103t47 -81.5t76 -54.5t103 -21l-4 500q-50 0 -93.5 -18.5t-75.5 -50.5t-50.5 -76t-18.5 -95z" />
<glyph unicode="&#xb7;" horiz-adv-x="370" d="M58 714q0 26 10 49.5t27 41t40 27.5t49 10t49.5 -10t41 -27.5t27.5 -41t10 -49.5t-10 -49t-27.5 -40t-41 -27t-49.5 -10t-49 10t-40 27t-27 40t-10 49z" />
<glyph unicode="&#xb8;" horiz-adv-x="298" d="M0 -318l48 88q12 -9 33.5 -18.5t38.5 -9.5q29 0 46.5 11t17.5 41q0 19 -9 32.5t-23 22t-30.5 12.5t-31.5 3h-8l36 182l110 -20l-50 -98q28 0 50 -11.5t37.5 -30.5t24 -43.5t8.5 -50.5q0 -35 -13.5 -62.5t-36 -46.5t-52 -29t-62.5 -10q-15 0 -33.5 2t-37 6.5t-35.5 11.5 t-28 18z" />
<glyph unicode="&#xb9;" horiz-adv-x="444" d="M52 1314l8 126l236 -6l-4 -722l112 2l-8 -118l-334 -6l-4 122h104v604z" />
<glyph unicode="&#xba;" horiz-adv-x="582" d="M82 674l422 4l-10 -140l-406 -10zM82 1092q0 28 4 64.5t13 74.5t25 74t40.5 64t57.5 45.5t78 17.5q41 0 72 -15t53.5 -39.5t38 -56t24.5 -65t12.5 -66.5t3.5 -60q0 -28 -4 -64t-13.5 -73.5t-25.5 -73.5t-40 -64t-57.5 -45.5t-77.5 -17.5q-63 0 -103 31.5t-62.5 77.5 t-30.5 98t-8 93zM204 1090q0 -17 2.5 -47.5t10.5 -60.5t24 -52t43 -22q34 0 54 27t29.5 64t12 75t2.5 60q0 18 -2 49t-9.5 61t-24 52t-44.5 22q-23 0 -39 -13t-27 -33.5t-17.5 -46.5t-9.5 -51t-4 -47.5t-1 -36.5z" />
<glyph unicode="&#xbb;" horiz-adv-x="1224" d="M54 262l454 226l-454 236l68 160l570 -336l-12 -128l-558 -318zM574 262l454 226l-454 236l68 160l570 -336l-12 -128l-558 -318z" />
<glyph unicode="&#xbc;" horiz-adv-x="1261" d="M64 1314l8 126l234 -6l-4 -722l114 2l-8 -118l-334 -6l-4 122h104l-2 604zM210 0l676 1460l122 -20l-686 -1460zM624 358l298 492h172l-4 -486h122l-8 -118h-116l-2 -124l100 2l-8 -118l-298 -6l-4 120h82v124l-330 -4zM758 362l198 2v328z" />
<glyph unicode="&#xbd;" horiz-adv-x="1423" d="M57 1314l8 126l234 -6l-4 -722l114 2l-8 -118l-334 -6l-4 122h104l-2 604zM203 0l676 1460l122 -20l-686 -1460zM797 862l134 2v-88q36 45 82 64.5t112 19.5q64 0 110 -21t76 -56t44 -80.5t14 -94.5q0 -56 -16.5 -97.5t-44 -74.5t-63 -58.5t-72.5 -47.5 q-35 -21 -70.5 -41.5t-67.5 -46.5q-29 -24 -48.5 -51.5t-27.5 -62.5l266 -6l8 118l120 -6l-6 -238l-534 6q0 83 18 143.5t48 104t67.5 74.5t76.5 56q35 21 72.5 42.5t69.5 47.5q29 24 45.5 53t16.5 71q0 27 -4.5 53t-18 47t-37 33.5t-60.5 12.5q-45 0 -77 -16t-53 -43 t-31.5 -61t-12.5 -70l-120 -4z" />
<glyph unicode="&#xbe;" horiz-adv-x="1440" d="M58 1456l134 2v-88q17 22 34 39t38 28.5t47 17t61 5.5q60 0 108 -17t82 -48t52 -73.5t18 -93.5q0 -72 -39.5 -126t-116.5 -80q34 -14 63 -34.5t49.5 -47t32 -57.5t11.5 -65q0 -122 -72 -180t-212 -58q-64 0 -115 20t-87 55t-55 82t-19 101q0 11 1 22t3 26l126 -4 q0 -38 9 -73t28.5 -62.5t51.5 -44t79 -16.5q69 0 97.5 33t28.5 89q0 28 -13.5 56t-36.5 50.5t-53.5 37t-64.5 14.5h-68v106h66q37 0 67 12.5t51 33.5t32.5 48t11.5 56q0 24 -7 46.5t-22 39.5t-37 27.5t-52 10.5q-47 0 -77.5 -18.5t-50 -48t-30.5 -65.5t-18 -70l-120 -4z M388 0l678 1460l122 -20l-686 -1460zM804 358l296 492h174l-6 -486h122l-8 -118h-114l-2 -124l98 2l-8 -118l-298 -6l-4 120h82v124l-328 -4zM936 362l200 2v328z" />
<glyph unicode="&#xbf;" horiz-adv-x="909" d="M54 254q0 87 20.5 171.5t64 155.5t109.5 122.5t158 72.5l30 200h116l30 -352h-98q-59 0 -104 -35t-75 -86.5t-45.5 -110.5t-15.5 -108q0 -41 8.5 -90.5t29.5 -92t56 -71t88 -28.5q67 0 112 32t73.5 81.5t44 109t24.5 113.5l158 6l22 -508l-176 -4l-2 164 q-27 -44 -52 -75.5t-55 -52t-68.5 -30.5t-92.5 -10q-95 0 -163 33.5t-111.5 91.5t-64.5 135.5t-21 165.5zM372 1154q0 26 10 49.5t27 41t40 27.5t49 10t49.5 -10t41 -27.5t27.5 -41t10 -49.5t-10 -49t-27.5 -40t-41 -27t-49.5 -10t-49 10t-40 27t-27 40t-10 49z" />
<glyph unicode="&#xc0;" horiz-adv-x="960" d="M-7 196l124 -4l218 1068l-102 -4l-10 170l510 10l-10 -160l-100 -4l226 -1100l124 -10l-14 -190l-406 10l-10 194l124 -4l-52 292l-264 -12l-42 -260l116 -10l-16 -180h-406zM225 1714l186 50l130 -252l-92 -30zM379 620h208l-108 614z" />
<glyph unicode="&#xc1;" horiz-adv-x="960" d="M-7 196l124 -4l218 1068l-102 -4l-10 170l510 10l-10 -160l-100 -4l226 -1100l124 -10l-14 -190l-406 10l-10 194l124 -4l-52 292l-264 -12l-42 -260l116 -10l-16 -180h-406zM379 620h208l-108 614zM445 1512l130 252l186 -50l-222 -232z" />
<glyph unicode="&#xc2;" horiz-adv-x="960" d="M-7 196l124 -4l218 1068l-102 -4l-10 170l510 10l-10 -160l-100 -4l226 -1100l124 -10l-14 -190l-406 10l-10 194l124 -4l-52 292l-264 -12l-42 -260l116 -10l-16 -180h-406zM251 1532l162 242l136 10l164 -252l-142 -30l-92 174l-88 -174zM379 620h208l-108 614z" />
<glyph unicode="&#xc3;" horiz-adv-x="960" d="M-7 196l124 -4l218 1068l-102 -4l-10 170l510 10l-10 -160l-100 -4l226 -1100l124 -10l-14 -190l-406 10l-10 194l124 -4l-52 292l-264 -12l-42 -260l116 -10l-16 -180h-406zM239 1610q12 14 29.5 31t38 31.5t42.5 24t42 9.5q26 0 48 -12.5t43.5 -27.5t44 -27.5 t50.5 -12.5q30 0 60 19.5t48 40.5l40 -122q-14 -12 -31.5 -24t-37 -22t-40 -16t-39.5 -6q-26 0 -50.5 13t-47.5 28t-45.5 28t-44.5 13q-12 0 -28 -10.5t-32 -25t-29.5 -29.5t-20.5 -23zM379 620h208l-108 614z" />
<glyph unicode="&#xc4;" horiz-adv-x="960" d="M-7 196l124 -4l218 1068l-102 -4l-10 170l510 10l-10 -160l-100 -4l226 -1100l124 -10l-14 -190l-406 10l-10 194l124 -4l-52 292l-264 -12l-42 -260l116 -10l-16 -180h-406zM241 1592q0 44 30 74t74 30q22 0 40 -8.5t31 -22.5t20 -33t7 -40q0 -44 -29 -74t-73 -30 q-21 0 -39.5 8.5t-32 23t-21 33.5t-7.5 39zM379 620h208l-108 614zM541 1592q0 39 26.5 66.5t65.5 27.5t64.5 -27.5t25.5 -66.5t-26.5 -65.5t-65.5 -26.5t-64.5 27t-25.5 65z" />
<glyph unicode="&#xc5;" horiz-adv-x="960" d="M-7 196l124 -4l218 1068l-102 -4l-10 170l510 10l-10 -160l-100 -4l226 -1100l124 -10l-14 -190l-406 10l-10 194l124 -4l-52 292l-264 -12l-42 -260l116 -10l-16 -180h-406zM301 1648q0 38 14 71.5t38 58.5t57 39.5t71 14.5q39 0 72.5 -13.5t58.5 -37.5t39 -57.5 t14 -73.5q0 -38 -13.5 -71t-37.5 -57.5t-56.5 -39t-70.5 -14.5t-71.5 14t-59 38t-40.5 57t-15 71zM379 620h208l-108 614zM395 1646q0 -39 25.5 -62.5t64.5 -23.5q42 0 64 28.5t22 69.5q0 39 -25.5 62.5t-64.5 23.5q-21 0 -37 -8.5t-27 -22t-16.5 -31t-5.5 -36.5z" />
<glyph unicode="&#xc6;" horiz-adv-x="1416" d="M-38 2l4 194l144 -4l402 1068l-100 -4v170h944l10 -388l-148 -10l-20 206l-364 -8l-4 -446h304v-144l-306 -18l-4 -446l374 14v220h148l10 -398l-814 -20l-6 184h118v292l-266 -12l-86 -260l112 -10l-6 -180h-446zM446 620h208v210v131v79t-0.5 53t-1 53t-0.5 80h-2z" />
<glyph unicode="&#xc7;" horiz-adv-x="1033" d="M59 716q0 76 9.5 160t31 165.5t57 155.5t88.5 130t125 89.5t165 33.5q94 0 158 -44t112 -122l2 164l176 -4l-22 -510l-158 6q-6 35 -15.5 73t-24 74t-34.5 68.5t-47 57t-61 39t-76 14.5q-63 0 -109.5 -27t-79.5 -72t-54.5 -102.5t-33.5 -117.5t-16.5 -118.5t-4.5 -104.5 q0 -43 4 -100.5t15.5 -118.5t31.5 -120.5t51.5 -106t75.5 -75.5t104 -29q73 0 122.5 32t80.5 82.5t45.5 113t19.5 124.5h158q0 -96 -22.5 -187t-68.5 -164.5t-116.5 -122.5t-166.5 -60l-32 -64q28 0 50 -11.5t37.5 -30.5t24 -43.5t8.5 -50.5q0 -35 -13.5 -62.5t-36 -46.5 t-52 -29t-62.5 -10q-15 0 -33.5 2t-37 6.5t-35.5 11.5t-28 18l48 88q12 -9 33.5 -18.5t38.5 -9.5q29 0 46.5 11t17.5 41q0 19 -9 32.5t-23 22t-30.5 12.5t-31.5 3h-8l24 128q-77 9 -138 48t-107.5 98t-79 132.5t-53.5 151t-30.5 154t-9.5 140.5z" />
<glyph unicode="&#xc8;" horiz-adv-x="953" d="M65 1222l10 194l818 10l10 -388l-148 -10l-20 206l-364 -8l-4 -446h304v-144l-306 -18l-4 -446l374 14v220h148l10 -398l-814 -20l-6 184h118l-2 1054zM225 1714l186 50l130 -252l-92 -30z" />
<glyph unicode="&#xc9;" horiz-adv-x="953" d="M65 1222l10 194l818 10l10 -388l-148 -10l-20 206l-364 -8l-4 -446h304v-144l-306 -18l-4 -446l374 14v220h148l10 -398l-814 -20l-6 184h118l-2 1054zM425 1512l130 252l186 -50l-222 -232z" />
<glyph unicode="&#xca;" horiz-adv-x="953" d="M65 1222l10 194l818 10l10 -388l-148 -10l-20 206l-364 -8l-4 -446h304v-144l-306 -18l-4 -446l374 14v220h148l10 -398l-814 -20l-6 184h118l-2 1054zM253 1532l162 242l136 10l164 -252l-142 -30l-92 174l-88 -174z" />
<glyph unicode="&#xcb;" horiz-adv-x="953" d="M65 1222l10 194l818 10l10 -388l-148 -10l-20 206l-364 -8l-4 -446h304v-144l-306 -18l-4 -446l374 14v220h148l10 -398l-814 -20l-6 184h118l-2 1054zM243 1592q0 44 30 74t74 30q22 0 40 -8.5t31 -22.5t20 -33t7 -40q0 -44 -29 -74t-73 -30q-21 0 -39.5 8.5t-32 23 t-21 33.5t-7.5 39zM543 1592q0 39 26.5 66.5t65.5 27.5t64.5 -27.5t25.5 -66.5t-26.5 -65.5t-65.5 -26.5t-64.5 27t-25.5 65z" />
<glyph unicode="&#xcc;" horiz-adv-x="555" d="M5 1694l186 50l130 -252l-92 -30zM65 1212l10 194h396l16 -180l-116 -10l-10 -1022l140 4l-10 -180l-412 -10l-6 186h118l-2 1022z" />
<glyph unicode="&#xcd;" horiz-adv-x="555" d="M65 1212l10 194h396l16 -180l-116 -10l-10 -1022l140 4l-10 -180l-412 -10l-6 186h118l-2 1022zM245 1492l130 252l186 -50l-222 -232z" />
<glyph unicode="&#xce;" horiz-adv-x="555" d="M53 1492l162 242l136 10l164 -252l-142 -30l-92 174l-88 -174zM65 1212l10 194h396l16 -180l-116 -10l-10 -1022l140 4l-10 -180l-412 -10l-6 186h118l-2 1022z" />
<glyph unicode="&#xcf;" horiz-adv-x="555" d="M43 1572q0 44 30 74t74 30q22 0 40 -8.5t31 -22.5t20 -33t7 -40q0 -44 -29 -74t-73 -30q-21 0 -39.5 8.5t-32 23t-21 33.5t-7.5 39zM65 1212l10 194h396l16 -180l-116 -10l-10 -1022l140 4l-10 -180l-412 -10l-6 186h118l-2 1022zM343 1572q0 39 26.5 66.5t65.5 27.5 t64.5 -27.5t25.5 -66.5t-26.5 -65.5t-65.5 -26.5t-64.5 27t-25.5 65z" />
<glyph unicode="&#xd0;" horiz-adv-x="1029" d="M66 1416q88 6 174.5 8t175.5 2h114q91 0 159 -34t116.5 -91t79.5 -131t49 -154.5t25 -161t7 -150.5q0 -87 -11.5 -181.5t-41 -183t-80 -164.5t-129.5 -127q-48 -32 -103.5 -49t-112.5 -17h-6l-402 6l-6 184h118l-2 398l-110 -2l-6 186h116v472l-114 -4zM362 162 q20 -2 39 -3t39 -1q53 0 104 6q56 9 95.5 42.5t66 82t41.5 107.5t23 118.5t10 115.5t2 98v18q0 34 -4.5 83.5t-14.5 104.5t-28 109t-44 97.5t-62.5 70.5t-84.5 27h-64h-54t-54 -2l-4 -480l174 2l-10 -180l-166 -4z" />
<glyph unicode="&#xd1;" horiz-adv-x="1167" d="M57 1212l10 194h336l424 -1062v892l-126 -4l10 194h408l14 -180l-116 -10l-30 -1244l-174 -4l-450 1088l10 -882l136 4v-180l-428 -10l-6 186h118l-12 1022zM351 1610q12 14 29.5 31t38 31.5t42.5 24t42 9.5q26 0 48 -12.5t43.5 -27.5t44 -27.5t50.5 -12.5q30 0 60 19.5 t48 40.5l40 -122q-14 -12 -31.5 -24t-37 -22t-40 -16t-39.5 -6q-26 0 -50.5 13t-47.5 28t-45.5 28t-44.5 13q-12 0 -28 -10.5t-32 -25t-29.5 -29.5t-20.5 -23z" />
<glyph unicode="&#xd2;" d="M64 618q0 81 6 175t24 187t50.5 179t86 152t130.5 105.5t183 39.5q84 0 146.5 -32.5t106 -87t71 -124.5t43.5 -145.5t21.5 -150t5.5 -138.5q0 -81 -5 -173t-21.5 -182t-48 -173.5t-84 -146.5t-129.5 -101t-184 -38q-84 0 -146 30.5t-106.5 81.5t-73.5 118t-46 139.5 t-23.5 146.5t-6.5 138zM242 1754l186 50l130 -252l-92 -30zM252 602q0 -37 2 -84.5t9.5 -97t22.5 -97t39.5 -84.5t61.5 -60t89 -23q65 0 110 33t74.5 86.5t46 120.5t24.5 134.5t9.5 129.5t1.5 106q0 34 -2 84.5t-9 106t-21 111.5t-38.5 100.5t-61 72t-88.5 27.5 q-66 0 -111.5 -35.5t-75.5 -93.5t-47 -130.5t-25 -146.5t-9.5 -142.5t-1.5 -117.5z" />
<glyph unicode="&#xd3;" d="M64 618q0 81 6 175t24 187t50.5 179t86 152t130.5 105.5t183 39.5q84 0 146.5 -32.5t106 -87t71 -124.5t43.5 -145.5t21.5 -150t5.5 -138.5q0 -81 -5 -173t-21.5 -182t-48 -173.5t-84 -146.5t-129.5 -101t-184 -38q-84 0 -146 30.5t-106.5 81.5t-73.5 118t-46 139.5 t-23.5 146.5t-6.5 138zM252 602q0 -37 2 -84.5t9.5 -97t22.5 -97t39.5 -84.5t61.5 -60t89 -23q65 0 110 33t74.5 86.5t46 120.5t24.5 134.5t9.5 129.5t1.5 106q0 34 -2 84.5t-9 106t-21 111.5t-38.5 100.5t-61 72t-88.5 27.5q-66 0 -111.5 -35.5t-75.5 -93.5t-47 -130.5 t-25 -146.5t-9.5 -142.5t-1.5 -117.5zM502 1552l130 252l186 -50l-222 -232z" />
<glyph unicode="&#xd4;" d="M64 618q0 81 6 175t24 187t50.5 179t86 152t130.5 105.5t183 39.5q84 0 146.5 -32.5t106 -87t71 -124.5t43.5 -145.5t21.5 -150t5.5 -138.5q0 -81 -5 -173t-21.5 -182t-48 -173.5t-84 -146.5t-129.5 -101t-184 -38q-84 0 -146 30.5t-106.5 81.5t-73.5 118t-46 139.5 t-23.5 146.5t-6.5 138zM252 602q0 -37 2 -84.5t9.5 -97t22.5 -97t39.5 -84.5t61.5 -60t89 -23q65 0 110 33t74.5 86.5t46 120.5t24.5 134.5t9.5 129.5t1.5 106q0 34 -2 84.5t-9 106t-21 111.5t-38.5 100.5t-61 72t-88.5 27.5q-66 0 -111.5 -35.5t-75.5 -93.5t-47 -130.5 t-25 -146.5t-9.5 -142.5t-1.5 -117.5zM290 1532l162 242l136 10l164 -252l-142 -30l-92 174l-88 -174z" />
<glyph unicode="&#xd5;" d="M64 618q0 81 6 175t24 187t50.5 179t86 152t130.5 105.5t183 39.5q84 0 146.5 -32.5t106 -87t71 -124.5t43.5 -145.5t21.5 -150t5.5 -138.5q0 -81 -5 -173t-21.5 -182t-48 -173.5t-84 -146.5t-129.5 -101t-184 -38q-84 0 -146 30.5t-106.5 81.5t-73.5 118t-46 139.5 t-23.5 146.5t-6.5 138zM252 602q0 -37 2 -84.5t9.5 -97t22.5 -97t39.5 -84.5t61.5 -60t89 -23q65 0 110 33t74.5 86.5t46 120.5t24.5 134.5t9.5 129.5t1.5 106q0 34 -2 84.5t-9 106t-21 111.5t-38.5 100.5t-61 72t-88.5 27.5q-66 0 -111.5 -35.5t-75.5 -93.5t-47 -130.5 t-25 -146.5t-9.5 -142.5t-1.5 -117.5zM258 1630q12 14 29.5 31t38 31.5t42.5 24t42 9.5q26 0 48 -12.5t43.5 -27.5t44 -27.5t50.5 -12.5q30 0 60 19.5t48 40.5l40 -122q-14 -12 -31.5 -24t-37 -22t-40 -16t-39.5 -6q-26 0 -50.5 13t-47.5 28t-45.5 28t-44.5 13 q-12 0 -28 -10.5t-32 -25t-29.5 -29.5t-20.5 -23z" />
<glyph unicode="&#xd6;" d="M64 618q0 81 6 175t24 187t50.5 179t86 152t130.5 105.5t183 39.5q84 0 146.5 -32.5t106 -87t71 -124.5t43.5 -145.5t21.5 -150t5.5 -138.5q0 -81 -5 -173t-21.5 -182t-48 -173.5t-84 -146.5t-129.5 -101t-184 -38q-84 0 -146 30.5t-106.5 81.5t-73.5 118t-46 139.5 t-23.5 146.5t-6.5 138zM252 602q0 -37 2 -84.5t9.5 -97t22.5 -97t39.5 -84.5t61.5 -60t89 -23q65 0 110 33t74.5 86.5t46 120.5t24.5 134.5t9.5 129.5t1.5 106q0 34 -2 84.5t-9 106t-21 111.5t-38.5 100.5t-61 72t-88.5 27.5q-66 0 -111.5 -35.5t-75.5 -93.5t-47 -130.5 t-25 -146.5t-9.5 -142.5t-1.5 -117.5zM260 1592q0 44 30 74t74 30q22 0 40 -8.5t31 -22.5t20 -33t7 -40q0 -44 -29 -74t-73 -30q-21 0 -39.5 8.5t-32 23t-21 33.5t-7.5 39zM560 1592q0 39 26.5 66.5t65.5 27.5t64.5 -27.5t25.5 -66.5t-26.5 -65.5t-65.5 -26.5t-64.5 27 t-25.5 65z" />
<glyph unicode="&#xd7;" horiz-adv-x="693" d="M62 912l128 134l166 -164l150 152l122 -134l-142 -146l150 -148l-134 -120l-142 138l-160 -166l-134 128l162 164z" />
<glyph unicode="&#xd8;" d="M64 618q0 81 6 175t24 187t50.5 179t86 152t130.5 105.5t183 39.5q47 0 86 -10t72 -28l18 42l184 -20l-70 -158q31 -55 51.5 -119.5t32 -131t16 -132t4.5 -121.5q0 -81 -5 -173t-21.5 -182t-48 -173.5t-84 -146.5t-129.5 -101t-184 -38q-57 0 -105 15t-87 41l-18 -40 l-152 20l60 144q-29 52 -48.5 112t-31 122t-16 123.5t-4.5 116.5zM252 602q0 -42 3.5 -97.5t14.5 -112.5l354 838q-21 18 -45.5 28t-56.5 10q-66 0 -111.5 -35.5t-75.5 -93.5t-47 -130.5t-25 -146.5t-9.5 -142.5t-1.5 -117.5zM356 204q23 -23 52.5 -35.5t67.5 -12.5 q65 0 110 33t74.5 86.5t46 120.5t24.5 134.5t9.5 129.5t1.5 106q0 22 -0.5 52t-3 64t-7 70.5t-11.5 73.5z" />
<glyph unicode="&#xd9;" horiz-adv-x="1104" d="M39 1222l10 194h396l16 -180l-116 -10q-5 -154 -12.5 -307t-7.5 -307q0 -37 1 -84.5t7 -98.5t19 -100t36.5 -87.5t59.5 -62t89 -23.5q60 0 101 30t67 79t40 111t20 125t7 122.5t1 102.5v530l-124 -4l10 194h396l14 -180l-114 -10v-534q-1 -75 -5.5 -160.5t-19.5 -169.5 t-43 -161.5t-75.5 -136.5t-117 -94.5t-167.5 -35.5q-84 0 -145 32t-103.5 85.5t-68.5 123t-40.5 144t-19.5 148.5t-5 137q0 148 6.5 295.5t11.5 296.5zM295 1714l186 50l130 -252l-92 -30z" />
<glyph unicode="&#xda;" horiz-adv-x="1104" d="M39 1222l10 194h396l16 -180l-116 -10q-5 -154 -12.5 -307t-7.5 -307q0 -37 1 -84.5t7 -98.5t19 -100t36.5 -87.5t59.5 -62t89 -23.5q60 0 101 30t67 79t40 111t20 125t7 122.5t1 102.5v530l-124 -4l10 194h396l14 -180l-114 -10v-534q-1 -75 -5.5 -160.5t-19.5 -169.5 t-43 -161.5t-75.5 -136.5t-117 -94.5t-167.5 -35.5q-84 0 -145 32t-103.5 85.5t-68.5 123t-40.5 144t-19.5 148.5t-5 137q0 148 6.5 295.5t11.5 296.5zM495 1492l130 252l186 -50l-222 -232z" />
<glyph unicode="&#xdb;" horiz-adv-x="1104" d="M39 1222l10 194h396l16 -180l-116 -10q-5 -154 -12.5 -307t-7.5 -307q0 -37 1 -84.5t7 -98.5t19 -100t36.5 -87.5t59.5 -62t89 -23.5q60 0 101 30t67 79t40 111t20 125t7 122.5t1 102.5v530l-124 -4l10 194h396l14 -180l-114 -10v-534q-1 -75 -5.5 -160.5t-19.5 -169.5 t-43 -161.5t-75.5 -136.5t-117 -94.5t-167.5 -35.5q-84 0 -145 32t-103.5 85.5t-68.5 123t-40.5 144t-19.5 148.5t-5 137q0 148 6.5 295.5t11.5 296.5zM323 1532l162 242l136 10l164 -252l-142 -30l-92 174l-88 -174z" />
<glyph unicode="&#xdc;" horiz-adv-x="1104" d="M39 1222l10 194h396l16 -180l-116 -10q-5 -154 -12.5 -307t-7.5 -307q0 -37 1 -84.5t7 -98.5t19 -100t36.5 -87.5t59.5 -62t89 -23.5q60 0 101 30t67 79t40 111t20 125t7 122.5t1 102.5v530l-124 -4l10 194h396l14 -180l-114 -10v-534q-1 -75 -5.5 -160.5t-19.5 -169.5 t-43 -161.5t-75.5 -136.5t-117 -94.5t-167.5 -35.5q-84 0 -145 32t-103.5 85.5t-68.5 123t-40.5 144t-19.5 148.5t-5 137q0 148 6.5 295.5t11.5 296.5zM313 1592q0 44 30 74t74 30q22 0 40 -8.5t31 -22.5t20 -33t7 -40q0 -44 -29 -74t-73 -30q-21 0 -39.5 8.5t-32 23 t-21 33.5t-7.5 39zM613 1592q0 39 26.5 66.5t65.5 27.5t64.5 -27.5t25.5 -66.5t-26.5 -65.5t-65.5 -26.5t-64.5 27t-25.5 65z" />
<glyph unicode="&#xdd;" horiz-adv-x="958" d="M-10 1222l10 194h406l16 -180l-116 -10l170 -540l188 540l-124 -4l10 194l406 10l14 -190l-124 -10l-288 -702l-4 -330l140 4l-10 -180l-412 -10l-6 186h118l-2 334l-268 698zM422 1512l130 252l186 -50l-222 -232z" />
<glyph unicode="&#xde;" horiz-adv-x="973" d="M65 1432l406 8l2 -180l-110 -10l2 -110h144q91 0 171 -30.5t138.5 -86t92.5 -132.5t34 -171q0 -124 -40 -208t-110.5 -135t-166 -73.5t-207.5 -23.5h-56l-4 -86l140 4l-10 -180l-412 -10l-6 186h118l-2 1048l-114 -4zM365 450h50q69 0 131.5 8.5t110.5 35.5t76 79t28 139 q0 51 -18.5 95t-50.5 76t-76 50.5t-95 18.5h-64h-86z" />
<glyph unicode="&#xdf;" horiz-adv-x="1072" d="M39 848l4 176h140q1 109 20.5 195.5t66.5 146t125.5 91t197.5 31.5q70 0 134 -20.5t112.5 -60t77 -97.5t28.5 -134q0 -78 -20.5 -124.5t-51 -75t-66.5 -46t-66.5 -36t-51 -46t-20.5 -76.5q0 -44 18.5 -78t47.5 -61t64.5 -48t69.5 -39q51 -29 86.5 -59.5t58 -67.5t33 -83 t10.5 -104q0 -56 -21.5 -102.5t-58.5 -81t-85.5 -53.5t-102.5 -19q-50 0 -91 27t-71 63l-22 -86l-126 10l10 332l192 -2q-2 -12 -3 -25t-1 -25q0 -24 6 -46.5t18 -40.5t31.5 -28.5t46.5 -10.5q19 0 35.5 9.5t28 24.5t18 33t6.5 35q0 43 -20 77t-50 60.5t-66 47.5t-68 39 q-53 29 -88.5 59.5t-56.5 67.5t-30 83t-9 106q0 64 22 104.5t55 68.5t71 47t71 41t55 50.5t22 74.5q0 25 -14 49.5t-37 44t-52.5 31t-60.5 11.5q-78 0 -125.5 -17t-74 -51.5t-36.5 -88.5t-12 -127q-5 -85 -2.5 -170t0.5 -170v-680h-308v176l132 4v664h-146z" />
<glyph unicode="&#xe0;" horiz-adv-x="766" d="M62 278q0 68 22.5 124t63 95.5t97.5 61t125 21.5q27 0 53.5 -3.5t52.5 -12.5q2 17 2 32v32q0 9 -1 29.5t-3.5 46t-7.5 53t-13.5 50t-20 37t-28.5 14.5q-19 0 -37 -13t-34 -33.5t-29.5 -46t-24.5 -50.5t-19 -46.5t-12 -34.5l-170 8l-6 372l166 4v-146q10 26 27 54 t39.5 50.5t50 37t59.5 14.5q76 0 122.5 -23t71 -64.5t32.5 -100t8 -128.5q0 -136 -2 -271t-14 -271h108l-4 -160l-206 -20l-10 116q-21 -23 -48.5 -43.5t-59 -37t-65 -26t-65.5 -9.5q-62 0 -104.5 24.5t-68 65t-36.5 92.5t-11 106zM142 1344l186 50l130 -252l-92 -30z M228 268q0 -47 25 -79.5t75 -32.5q16 0 42.5 4.5t51 14.5t42.5 25.5t18 37.5v146q-14 20 -41.5 26t-50.5 6q-72 0 -117 -35.5t-45 -112.5z" />
<glyph unicode="&#xe1;" horiz-adv-x="766" d="M62 278q0 68 22.5 124t63 95.5t97.5 61t125 21.5q27 0 53.5 -3.5t52.5 -12.5q2 17 2 32v32q0 9 -1 29.5t-3.5 46t-7.5 53t-13.5 50t-20 37t-28.5 14.5q-19 0 -37 -13t-34 -33.5t-29.5 -46t-24.5 -50.5t-19 -46.5t-12 -34.5l-170 8l-6 372l166 4v-146q10 26 27 54 t39.5 50.5t50 37t59.5 14.5q76 0 122.5 -23t71 -64.5t32.5 -100t8 -128.5q0 -136 -2 -271t-14 -271h108l-4 -160l-206 -20l-10 116q-21 -23 -48.5 -43.5t-59 -37t-65 -26t-65.5 -9.5q-62 0 -104.5 24.5t-68 65t-36.5 92.5t-11 106zM228 268q0 -47 25 -79.5t75 -32.5 q16 0 42.5 4.5t51 14.5t42.5 25.5t18 37.5v146q-14 20 -41.5 26t-50.5 6q-72 0 -117 -35.5t-45 -112.5zM342 1142l130 252l186 -50l-222 -232z" />
<glyph unicode="&#xe2;" horiz-adv-x="766" d="M62 278q0 68 22.5 124t63 95.5t97.5 61t125 21.5q27 0 53.5 -3.5t52.5 -12.5q2 17 2 32v32q0 9 -1 29.5t-3.5 46t-7.5 53t-13.5 50t-20 37t-28.5 14.5q-19 0 -37 -13t-34 -33.5t-29.5 -46t-24.5 -50.5t-19 -46.5t-12 -34.5l-170 8l-6 372l166 4v-146q10 26 27 54 t39.5 50.5t50 37t59.5 14.5q76 0 122.5 -23t71 -64.5t32.5 -100t8 -128.5q0 -136 -2 -271t-14 -271h108l-4 -160l-206 -20l-10 116q-21 -23 -48.5 -43.5t-59 -37t-65 -26t-65.5 -9.5q-62 0 -104.5 24.5t-68 65t-36.5 92.5t-11 106zM170 1123l162 242l136 10l164 -252 l-142 -30l-92 174l-88 -174zM228 268q0 -47 25 -79.5t75 -32.5q16 0 42.5 4.5t51 14.5t42.5 25.5t18 37.5v146q-14 20 -41.5 26t-50.5 6q-72 0 -117 -35.5t-45 -112.5z" />
<glyph unicode="&#xe3;" horiz-adv-x="766" d="M62 278q0 68 22.5 124t63 95.5t97.5 61t125 21.5q27 0 53.5 -3.5t52.5 -12.5q2 17 2 32v32q0 9 -1 29.5t-3.5 46t-7.5 53t-13.5 50t-20 37t-28.5 14.5q-19 0 -37 -13t-34 -33.5t-29.5 -46t-24.5 -50.5t-19 -46.5t-12 -34.5l-170 8l-6 372l166 4v-146q10 26 27 54 t39.5 50.5t50 37t59.5 14.5q76 0 122.5 -23t71 -64.5t32.5 -100t8 -128.5q0 -136 -2 -271t-14 -271h108l-4 -160l-206 -20l-10 116q-21 -23 -48.5 -43.5t-59 -37t-65 -26t-65.5 -9.5q-62 0 -104.5 24.5t-68 65t-36.5 92.5t-11 106zM158 1221q12 14 29.5 31t38 31.5t42.5 24 t42 9.5q26 0 48 -12.5t43.5 -27.5t44 -27.5t50.5 -12.5q30 0 60 19.5t48 40.5l40 -122q-14 -12 -31.5 -24t-37 -22t-40 -16t-39.5 -6q-26 0 -50.5 13t-47.5 28t-45.5 28t-44.5 13q-12 0 -28 -10.5t-32 -25t-29.5 -29.5t-20.5 -23zM228 268q0 -47 25 -79.5t75 -32.5 q16 0 42.5 4.5t51 14.5t42.5 25.5t18 37.5v146q-14 20 -41.5 26t-50.5 6q-72 0 -117 -35.5t-45 -112.5z" />
<glyph unicode="&#xe4;" horiz-adv-x="766" d="M62 278q0 68 22.5 124t63 95.5t97.5 61t125 21.5q27 0 53.5 -3.5t52.5 -12.5q2 17 2 32v32q0 9 -1 29.5t-3.5 46t-7.5 53t-13.5 50t-20 37t-28.5 14.5q-19 0 -37 -13t-34 -33.5t-29.5 -46t-24.5 -50.5t-19 -46.5t-12 -34.5l-170 8l-6 372l166 4v-146q10 26 27 54 t39.5 50.5t50 37t59.5 14.5q76 0 122.5 -23t71 -64.5t32.5 -100t8 -128.5q0 -136 -2 -271t-14 -271h108l-4 -160l-206 -20l-10 116q-21 -23 -48.5 -43.5t-59 -37t-65 -26t-65.5 -9.5q-62 0 -104.5 24.5t-68 65t-36.5 92.5t-11 106zM140 1203q0 44 30 74t74 30q22 0 40 -8.5 t31 -22.5t20 -33t7 -40q0 -44 -29 -74t-73 -30q-21 0 -39.5 8.5t-32 23t-21 33.5t-7.5 39zM228 268q0 -47 25 -79.5t75 -32.5q16 0 42.5 4.5t51 14.5t42.5 25.5t18 37.5v146q-14 20 -41.5 26t-50.5 6q-72 0 -117 -35.5t-45 -112.5zM440 1203q0 39 26.5 66.5t65.5 27.5 t64.5 -27.5t25.5 -66.5t-26.5 -65.5t-65.5 -26.5t-64.5 27t-25.5 65z" />
<glyph unicode="&#xe5;" horiz-adv-x="766" d="M62 278q0 68 22.5 124t63 95.5t97.5 61t125 21.5q27 0 53.5 -3.5t52.5 -12.5q2 17 2 32v32q0 9 -1 29.5t-3.5 46t-7.5 53t-13.5 50t-20 37t-28.5 14.5q-19 0 -37 -13t-34 -33.5t-29.5 -46t-24.5 -50.5t-19 -46.5t-12 -34.5l-170 8l-6 372l166 4v-146q10 26 27 54 t39.5 50.5t50 37t59.5 14.5q76 0 122.5 -23t71 -64.5t32.5 -100t8 -128.5q0 -136 -2 -271t-14 -271h108l-4 -160l-206 -20l-10 116q-21 -23 -48.5 -43.5t-59 -37t-65 -26t-65.5 -9.5q-62 0 -104.5 24.5t-68 65t-36.5 92.5t-11 106zM218 1259q0 38 14 71.5t38 58.5t57 39.5 t71 14.5q39 0 72.5 -13.5t58.5 -37.5t39 -57.5t14 -73.5q0 -38 -13.5 -71t-37.5 -57.5t-56.5 -39t-70.5 -14.5t-71.5 14t-59 38t-40.5 57t-15 71zM228 268q0 -47 25 -79.5t75 -32.5q16 0 42.5 4.5t51 14.5t42.5 25.5t18 37.5v146q-14 20 -41.5 26t-50.5 6q-72 0 -117 -35.5 t-45 -112.5zM312 1257q0 -39 25.5 -62.5t64.5 -23.5q42 0 64 28.5t22 69.5q0 39 -25.5 62.5t-64.5 23.5q-21 0 -37 -8.5t-27 -22t-16.5 -31t-5.5 -36.5z" />
<glyph unicode="&#xe6;" horiz-adv-x="1147" d="M62 278q0 68 22.5 124t63 95.5t97.5 61t125 21.5q27 0 53.5 -3.5t52.5 -12.5q2 17 2 32v32q0 9 -1 29.5t-3.5 46t-7.5 53t-13.5 50t-20 37t-28.5 14.5q-19 0 -37 -13t-34 -33.5t-29.5 -46t-24.5 -50.5t-19 -46.5t-12 -34.5l-170 8l-6 372l166 4v-146q10 26 27 54 t39.5 50.5t50 37t59.5 14.5q69 0 113 -18.5t71 -53.5q33 39 80 61.5t110 22.5q106 0 167 -33.5t92.5 -92t40 -138t8.5 -170.5q0 -82 -6 -160l-430 -8q0 -21 2 -50.5t6.5 -62t13 -64t22.5 -57t34.5 -41t49.5 -15.5q31 0 53.5 16.5t37 41t22.5 53.5t11 55h174q-9 -57 -30 -115 t-56 -105t-85 -76.5t-117 -29.5q-80 0 -134 33t-90 87q-23 -20 -52.5 -40.5t-66.5 -38t-80.5 -28.5t-92.5 -11q-62 0 -104.5 24.5t-68 65t-36.5 92.5t-11 106zM228 268q0 -47 25 -79.5t75 -32.5q16 0 42.5 4.5t51 14.5t42.5 25.5t18 37.5v146q-14 20 -41.5 26t-50.5 6 q-72 0 -117 -35.5t-45 -112.5zM658 582h258q6 42 6 82q0 30 -3.5 68t-16 72t-36.5 57t-64 23q-35 0 -59 -15.5t-40 -40.5t-25 -57.5t-13 -66t-5.5 -65.5t-1.5 -57z" />
<glyph unicode="&#xe7;" horiz-adv-x="738" d="M51 512q0 48 6 105.5t20.5 115.5t38.5 113t59.5 97t83 67.5t110.5 25.5q50 0 95 -26t77 -64l20 86l126 -10l-10 -410l-162 4q-1 28 -7.5 70.5t-21.5 83t-41 69.5t-66 29q-32 0 -54.5 -21t-37.5 -54t-24 -74t-13.5 -81t-5.5 -74.5t-1 -55.5q0 -23 0.5 -57.5t4 -73t11 -77 t23 -69.5t39 -50t58.5 -19q41 0 68 28t43.5 67.5t23 82.5t7.5 74h160q-1 -42 -7.5 -87.5t-20.5 -89.5t-35 -84.5t-50 -73t-66 -54.5t-83 -29l-28 -58q28 0 50 -11.5t37.5 -30.5t24 -43.5t8.5 -50.5q0 -35 -13.5 -62.5t-36 -46.5t-52 -29t-62.5 -10q-15 0 -33.5 2t-37 6.5 t-35.5 11.5t-28 18l48 88q12 -9 33.5 -18.5t38.5 -9.5q29 0 46.5 11t17.5 41q0 19 -9 32.5t-23 22t-30.5 12.5t-31.5 3h-8l24 124q-57 9 -99 37t-72 68t-48.5 90t-29.5 103.5t-15 109t-4 106.5z" />
<glyph unicode="&#xe8;" horiz-adv-x="718" d="M53 544q0 48 5.5 104t18.5 111t35.5 106t56.5 89.5t81 62t109 23.5q106 0 167 -33.5t92.5 -92t40 -138t8.5 -170.5q0 -82 -6 -160l-430 -8q0 -21 2 -50.5t6.5 -62t13 -64t22.5 -57t34.5 -41t49.5 -15.5q31 0 53.5 16.5t37 41t22.5 53.5t11 55h174q-9 -57 -30 -115 t-56 -105t-85 -76.5t-117 -29.5q-70 0 -120.5 26.5t-85.5 70.5t-57 101.5t-33.5 119t-15.5 123.5t-4 115zM101 1344l186 50l130 -252l-92 -30zM229 582h258q6 42 6 82q0 30 -3.5 68t-16 72t-36.5 57t-64 23q-35 0 -59 -15.5t-40 -40.5t-25 -57.5t-13 -66t-5.5 -65.5 t-1.5 -57z" />
<glyph unicode="&#xe9;" horiz-adv-x="718" d="M53 544q0 48 5.5 104t18.5 111t35.5 106t56.5 89.5t81 62t109 23.5q106 0 167 -33.5t92.5 -92t40 -138t8.5 -170.5q0 -82 -6 -160l-430 -8q0 -21 2 -50.5t6.5 -62t13 -64t22.5 -57t34.5 -41t49.5 -15.5q31 0 53.5 16.5t37 41t22.5 53.5t11 55h174q-9 -57 -30 -115 t-56 -105t-85 -76.5t-117 -29.5q-70 0 -120.5 26.5t-85.5 70.5t-57 101.5t-33.5 119t-15.5 123.5t-4 115zM229 582h258q6 42 6 82q0 30 -3.5 68t-16 72t-36.5 57t-64 23q-35 0 -59 -15.5t-40 -40.5t-25 -57.5t-13 -66t-5.5 -65.5t-1.5 -57zM341 1142l130 252l186 -50 l-222 -232z" />
<glyph unicode="&#xea;" horiz-adv-x="718" d="M53 544q0 48 5.5 104t18.5 111t35.5 106t56.5 89.5t81 62t109 23.5q106 0 167 -33.5t92.5 -92t40 -138t8.5 -170.5q0 -82 -6 -160l-430 -8q0 -21 2 -50.5t6.5 -62t13 -64t22.5 -57t34.5 -41t49.5 -15.5q31 0 53.5 16.5t37 41t22.5 53.5t11 55h174q-9 -57 -30 -115 t-56 -105t-85 -76.5t-117 -29.5q-70 0 -120.5 26.5t-85.5 70.5t-57 101.5t-33.5 119t-15.5 123.5t-4 115zM129 1123l162 242l136 10l164 -252l-142 -30l-92 174l-88 -174zM229 582h258q6 42 6 82q0 30 -3.5 68t-16 72t-36.5 57t-64 23q-35 0 -59 -15.5t-40 -40.5t-25 -57.5 t-13 -66t-5.5 -65.5t-1.5 -57z" />
<glyph unicode="&#xeb;" horiz-adv-x="718" d="M53 544q0 48 5.5 104t18.5 111t35.5 106t56.5 89.5t81 62t109 23.5q106 0 167 -33.5t92.5 -92t40 -138t8.5 -170.5q0 -82 -6 -160l-430 -8q0 -21 2 -50.5t6.5 -62t13 -64t22.5 -57t34.5 -41t49.5 -15.5q31 0 53.5 16.5t37 41t22.5 53.5t11 55h174q-9 -57 -30 -115 t-56 -105t-85 -76.5t-117 -29.5q-70 0 -120.5 26.5t-85.5 70.5t-57 101.5t-33.5 119t-15.5 123.5t-4 115zM119 1203q0 44 30 74t74 30q22 0 40 -8.5t31 -22.5t20 -33t7 -40q0 -44 -29 -74t-73 -30q-21 0 -39.5 8.5t-32 23t-21 33.5t-7.5 39zM229 582h258q6 42 6 82 q0 30 -3.5 68t-16 72t-36.5 57t-64 23q-35 0 -59 -15.5t-40 -40.5t-25 -57.5t-13 -66t-5.5 -65.5t-1.5 -57zM419 1203q0 39 26.5 66.5t65.5 27.5t64.5 -27.5t25.5 -66.5t-26.5 -65.5t-65.5 -26.5t-64.5 27t-25.5 65z" />
<glyph unicode="&#xec;" horiz-adv-x="457" d="M-30 1325l186 50l130 -252l-92 -30zM23 844l4 174h322l-24 -868l108 -10l-6 -166l-366 16v174l84 6v674h-122z" />
<glyph unicode="&#xed;" horiz-adv-x="458" d="M23 844l4 174h322l-24 -868l108 -10l-6 -166l-366 16v174l84 6v674h-122zM189 1123l130 252l186 -50l-222 -232z" />
<glyph unicode="&#xee;" horiz-adv-x="457" d="M-2 1123l162 242l136 10l164 -252l-142 -30l-92 174l-88 -174zM23 844l4 174h322l-24 -868l108 -10l-6 -166l-366 16v174l84 6v674h-122z" />
<glyph unicode="&#xef;" horiz-adv-x="457" d="M-12 1203q0 44 30 74t74 30q22 0 40 -8.5t31 -22.5t20 -33t7 -40q0 -44 -29 -74t-73 -30q-21 0 -39.5 8.5t-32 23t-21 33.5t-7.5 39zM23 844l4 174h322l-24 -868l108 -10l-6 -166l-366 16v174l84 6v674h-122zM288 1203q0 39 26.5 66.5t65.5 27.5t64.5 -27.5t25.5 -66.5 t-26.5 -65.5t-65.5 -26.5t-64.5 27t-25.5 65z" />
<glyph unicode="&#xf0;" horiz-adv-x="753" d="M50 476q0 50 6 112t20.5 125.5t39 123.5t61 106.5t86.5 74.5t117 28q30 0 59 -12t55 -32q-15 32 -32.5 70.5t-37.5 77.5l-152 -32l-32 142l112 22q-23 39 -46 71.5t-46 56.5l158 64q12 -17 28 -40q13 -20 30.5 -49.5t37.5 -68.5l144 30l18 -140l-102 -22 q22 -59 43 -128.5t36.5 -149.5t25 -171t9.5 -191q0 -50 -6 -111t-21 -123.5t-39.5 -122t-61.5 -105.5t-86.5 -74t-115.5 -28q-62 0 -109 23.5t-81 62t-57 89.5t-36.5 106t-19 111t-5.5 104zM210 474q0 -21 2 -53.5t8 -69.5t16.5 -73.5t26.5 -66.5t39 -48.5t54 -18.5 q38 0 65.5 23t47 59.5t31.5 81.5t18.5 90.5t9 85.5t2.5 66q0 21 -2 54t-7.5 70t-15.5 74t-26 67t-39.5 48.5t-55.5 18.5q-39 0 -66.5 -23.5t-47 -60.5t-31.5 -82.5t-18.5 -91t-8.5 -85.5t-2 -65z" />
<glyph unicode="&#xf1;" horiz-adv-x="886" d="M23 852l4 170l288 10l6 -142q20 30 47.5 57.5t60.5 48.5t69.5 33.5t74.5 12.5q45 0 77 -15t54 -41t34.5 -59.5t19.5 -71t9 -76t2 -73.5q0 -139 -3.5 -277t-6.5 -277l102 -10l-20 -160l-336 14l-4 162l88 10q3 136 5.5 271t2.5 271q0 24 -4.5 50t-15.5 48t-30.5 36 t-49.5 14q-44 0 -74.5 -24.5t-49.5 -60.5t-28 -78t-10 -77q-5 -113 -6.5 -225t-3.5 -225h88l10 -162l-346 -4v184l98 6l-6 650zM199 1221q12 14 29.5 31t38 31.5t42.5 24t42 9.5q26 0 48 -12.5t43.5 -27.5t44 -27.5t50.5 -12.5q30 0 60 19.5t48 40.5l40 -122 q-14 -12 -31.5 -24t-37 -22t-40 -16t-39.5 -6q-26 0 -50.5 13t-47.5 28t-45.5 28t-44.5 13q-12 0 -28 -10.5t-32 -25t-29.5 -29.5t-20.5 -23z" />
<glyph unicode="&#xf2;" horiz-adv-x="737" d="M50 476q0 50 6 112t20.5 125.5t39 123.5t61 106.5t86.5 74.5t117 28q61 0 107.5 -24t81 -64t57 -92t36.5 -107.5t20 -111.5t6 -103q0 -50 -6 -111t-21 -123.5t-39.5 -122t-61.5 -105.5t-86.5 -74t-115.5 -28q-62 0 -109 23.5t-81 62t-57 89.5t-36.5 106t-19 111t-5.5 104 zM110 1344l186 50l130 -252l-92 -30zM210 474q0 -21 2 -53.5t8 -69.5t16.5 -73.5t26.5 -66.5t39 -48.5t54 -18.5q38 0 65.5 23t47 59.5t31.5 81.5t18.5 90.5t9 85.5t2.5 66q0 21 -2 54t-7.5 70t-15.5 74t-26 67t-39.5 48.5t-55.5 18.5q-39 0 -66.5 -23.5t-47 -60.5 t-31.5 -82.5t-18.5 -91t-8.5 -85.5t-2 -65z" />
<glyph unicode="&#xf3;" horiz-adv-x="737" d="M50 476q0 50 6 112t20.5 125.5t39 123.5t61 106.5t86.5 74.5t117 28q61 0 107.5 -24t81 -64t57 -92t36.5 -107.5t20 -111.5t6 -103q0 -50 -6 -111t-21 -123.5t-39.5 -122t-61.5 -105.5t-86.5 -74t-115.5 -28q-62 0 -109 23.5t-81 62t-57 89.5t-36.5 106t-19 111t-5.5 104 zM210 474q0 -21 2 -53.5t8 -69.5t16.5 -73.5t26.5 -66.5t39 -48.5t54 -18.5q38 0 65.5 23t47 59.5t31.5 81.5t18.5 90.5t9 85.5t2.5 66q0 21 -2 54t-7.5 70t-15.5 74t-26 67t-39.5 48.5t-55.5 18.5q-39 0 -66.5 -23.5t-47 -60.5t-31.5 -82.5t-18.5 -91t-8.5 -85.5t-2 -65z M330 1142l130 252l186 -50l-222 -232z" />
<glyph unicode="&#xf4;" horiz-adv-x="737" d="M50 476q0 50 6 112t20.5 125.5t39 123.5t61 106.5t86.5 74.5t117 28q61 0 107.5 -24t81 -64t57 -92t36.5 -107.5t20 -111.5t6 -103q0 -50 -6 -111t-21 -123.5t-39.5 -122t-61.5 -105.5t-86.5 -74t-115.5 -28q-62 0 -109 23.5t-81 62t-57 89.5t-36.5 106t-19 111t-5.5 104 zM158 1123l162 242l136 10l164 -252l-142 -30l-92 174l-88 -174zM210 474q0 -21 2 -53.5t8 -69.5t16.5 -73.5t26.5 -66.5t39 -48.5t54 -18.5q38 0 65.5 23t47 59.5t31.5 81.5t18.5 90.5t9 85.5t2.5 66q0 21 -2 54t-7.5 70t-15.5 74t-26 67t-39.5 48.5t-55.5 18.5 q-39 0 -66.5 -23.5t-47 -60.5t-31.5 -82.5t-18.5 -91t-8.5 -85.5t-2 -65z" />
<glyph unicode="&#xf5;" horiz-adv-x="737" d="M50 476q0 50 6 112t20.5 125.5t39 123.5t61 106.5t86.5 74.5t117 28q61 0 107.5 -24t81 -64t57 -92t36.5 -107.5t20 -111.5t6 -103q0 -50 -6 -111t-21 -123.5t-39.5 -122t-61.5 -105.5t-86.5 -74t-115.5 -28q-62 0 -109 23.5t-81 62t-57 89.5t-36.5 106t-19 111t-5.5 104 zM126 1221q12 14 29.5 31t38 31.5t42.5 24t42 9.5q26 0 48 -12.5t43.5 -27.5t44 -27.5t50.5 -12.5q30 0 60 19.5t48 40.5l40 -122q-14 -12 -31.5 -24t-37 -22t-40 -16t-39.5 -6q-26 0 -50.5 13t-47.5 28t-45.5 28t-44.5 13q-12 0 -28 -10.5t-32 -25t-29.5 -29.5t-20.5 -23z M210 474q0 -21 2 -53.5t8 -69.5t16.5 -73.5t26.5 -66.5t39 -48.5t54 -18.5q38 0 65.5 23t47 59.5t31.5 81.5t18.5 90.5t9 85.5t2.5 66q0 21 -2 54t-7.5 70t-15.5 74t-26 67t-39.5 48.5t-55.5 18.5q-39 0 -66.5 -23.5t-47 -60.5t-31.5 -82.5t-18.5 -91t-8.5 -85.5t-2 -65z " />
<glyph unicode="&#xf6;" horiz-adv-x="737" d="M50 476q0 50 6 112t20.5 125.5t39 123.5t61 106.5t86.5 74.5t117 28q61 0 107.5 -24t81 -64t57 -92t36.5 -107.5t20 -111.5t6 -103q0 -50 -6 -111t-21 -123.5t-39.5 -122t-61.5 -105.5t-86.5 -74t-115.5 -28q-62 0 -109 23.5t-81 62t-57 89.5t-36.5 106t-19 111t-5.5 104 zM128 1203q0 44 30 74t74 30q22 0 40 -8.5t31 -22.5t20 -33t7 -40q0 -44 -29 -74t-73 -30q-21 0 -39.5 8.5t-32 23t-21 33.5t-7.5 39zM210 474q0 -21 2 -53.5t8 -69.5t16.5 -73.5t26.5 -66.5t39 -48.5t54 -18.5q38 0 65.5 23t47 59.5t31.5 81.5t18.5 90.5t9 85.5t2.5 66 q0 21 -2 54t-7.5 70t-15.5 74t-26 67t-39.5 48.5t-55.5 18.5q-39 0 -66.5 -23.5t-47 -60.5t-31.5 -82.5t-18.5 -91t-8.5 -85.5t-2 -65zM428 1203q0 39 26.5 66.5t65.5 27.5t64.5 -27.5t25.5 -66.5t-26.5 -65.5t-65.5 -26.5t-64.5 27t-25.5 65z" />
<glyph unicode="&#xf7;" horiz-adv-x="748" d="M61 834l628 4l-10 -180l-612 -10zM287 494q0 21 7.5 39.5t21 32.5t32 22t39.5 8t39.5 -8t32.5 -22t22 -32.5t8 -39.5t-8 -39.5t-22 -32t-32.5 -21t-39.5 -7.5t-39.5 7.5t-32 21t-21 32t-7.5 39.5zM287 994q0 21 7.5 39.5t21 32.5t32 22t39.5 8t39.5 -8t32.5 -22t22 -32.5 t8 -39.5t-8 -39.5t-22 -32t-32.5 -21t-39.5 -7.5t-39.5 7.5t-32 21t-21 32t-7.5 39.5z" />
<glyph unicode="&#xf8;" horiz-adv-x="746" d="M54 476q0 50 6 112t20.5 125.5t39 123.5t61 106.5t87 74.5t116.5 28q59 0 104 -24l10 22l182 -20l-60 -138q20 -39 34 -83.5t22.5 -89.5t12 -88.5t3.5 -80.5q0 -50 -6 -111t-21 -123.5t-39.5 -122t-61.5 -105.5t-87 -74t-115 -28q-71 0 -122 30l-14 -30l-152 20l54 130 q-21 39 -35 83.5t-23 89.5t-12.5 89.5t-3.5 83.5zM214 474q0 -18 1.5 -47t6.5 -61l206 506q-20 10 -40 10q-39 0 -66.5 -23.5t-47 -60.5t-31.5 -82.5t-18.5 -91t-8.5 -85.5t-2 -65zM306 162q12 -9 24.5 -13.5t29.5 -4.5q38 0 65.5 23t47 59.5t31.5 81.5t18.5 90.5t9 85.5 t2.5 66q0 21 -1.5 51.5t-6.5 66.5z" />
<glyph unicode="&#xf9;" horiz-adv-x="863" d="M24 880l20 160l258 -14q-5 -180 -9.5 -356t-4.5 -356q0 -23 5 -48t16.5 -45.5t30.5 -33.5t48 -13q44 0 74.5 24.5t49.5 60.5t27.5 78t10.5 77q6 110 7 220t3 220h-88l-10 162l270 4l-16 -850l146 -10l-4 -170l-288 -10l-6 162q-20 -30 -47.5 -57.5t-60 -48.5t-69 -33.5 t-73.5 -12.5q-46 0 -78 15t-54 41t-35 59.5t-20 71t-9 76t-2 73.5q0 136 3.5 271.5t6.5 272.5zM184 1325l186 50l130 -252l-92 -30z" />
<glyph unicode="&#xfa;" horiz-adv-x="863" d="M24 880l20 160l258 -14q-5 -180 -9.5 -356t-4.5 -356q0 -23 5 -48t16.5 -45.5t30.5 -33.5t48 -13q44 0 74.5 24.5t49.5 60.5t27.5 78t10.5 77q6 110 7 220t3 220h-88l-10 162l270 4l-16 -850l146 -10l-4 -170l-288 -10l-6 162q-20 -30 -47.5 -57.5t-60 -48.5t-69 -33.5 t-73.5 -12.5q-46 0 -78 15t-54 41t-35 59.5t-20 71t-9 76t-2 73.5q0 136 3.5 271.5t6.5 272.5zM364 1123l130 252l186 -50l-222 -232z" />
<glyph unicode="&#xfb;" horiz-adv-x="863" d="M24 880l20 160l258 -14q-5 -180 -9.5 -356t-4.5 -356q0 -23 5 -48t16.5 -45.5t30.5 -33.5t48 -13q44 0 74.5 24.5t49.5 60.5t27.5 78t10.5 77q6 110 7 220t3 220h-88l-10 162l270 4l-16 -850l146 -10l-4 -170l-288 -10l-6 162q-20 -30 -47.5 -57.5t-60 -48.5t-69 -33.5 t-73.5 -12.5q-46 0 -78 15t-54 41t-35 59.5t-20 71t-9 76t-2 73.5q0 136 3.5 271.5t6.5 272.5zM192 1123l162 242l136 10l164 -252l-142 -30l-92 174l-88 -174z" />
<glyph unicode="&#xfc;" horiz-adv-x="863" d="M24 880l20 160l258 -14q-5 -180 -9.5 -356t-4.5 -356q0 -23 5 -48t16.5 -45.5t30.5 -33.5t48 -13q44 0 74.5 24.5t49.5 60.5t27.5 78t10.5 77q6 110 7 220t3 220h-88l-10 162l270 4l-16 -850l146 -10l-4 -170l-288 -10l-6 162q-20 -30 -47.5 -57.5t-60 -48.5t-69 -33.5 t-73.5 -12.5q-46 0 -78 15t-54 41t-35 59.5t-20 71t-9 76t-2 73.5q0 136 3.5 271.5t6.5 272.5zM162 1203q0 44 30 74t74 30q22 0 40 -8.5t31 -22.5t20 -33t7 -40q0 -44 -29 -74t-73 -30q-21 0 -39.5 8.5t-32 23t-21 33.5t-7.5 39zM462 1203q0 39 26.5 66.5t65.5 27.5 t64.5 -27.5t25.5 -66.5t-26.5 -65.5t-65.5 -26.5t-64.5 27t-25.5 65z" />
<glyph unicode="&#xfd;" horiz-adv-x="790" d="M-7 872l10 170l336 -4l4 -162l-88 -8l158 -604l116 594l-78 10l-10 160l346 4v-184l-96 -6l-238 -1080l82 -4v-166l-344 -4l-6 156l96 10l56 240l-252 878h-92zM351 1142l130 252l186 -50l-222 -232z" />
<glyph unicode="&#xfe;" horiz-adv-x="775" d="M-37 1258v164l268 10l14 -516q16 24 39 45t50 37t57 25t60 9q56 0 98 -27.5t72 -72t50 -101t31.5 -114.5t16 -112.5t4.5 -94.5q0 -49 -4.5 -107t-16 -116t-33 -112.5t-55 -96.5t-81 -67t-112.5 -25q-50 0 -91.5 29t-64.5 71v-338l90 -2v-158h-382l6 170l104 -4l12 1508z M269 334q0 -23 8.5 -53.5t24.5 -57.5t38.5 -46t50.5 -19q37 0 63.5 18t43.5 47t27 65.5t15 74.5t6 73t1 60q0 22 -1 57.5t-5.5 75t-13.5 79.5t-25 72t-40.5 52t-58.5 20q-31 0 -54.5 -11t-39.5 -30.5t-24.5 -45.5t-9.5 -55q-2 -94 -4 -187.5t-2 -188.5z" />
<glyph unicode="&#xff;" horiz-adv-x="790" d="M-7 872l10 170l336 -4l4 -162l-88 -8l158 -604l116 594l-78 10l-10 160l346 4v-184l-96 -6l-238 -1080l82 -4v-166l-344 -4l-6 156l96 10l56 240l-252 878h-92zM149 1223q0 44 30 74t74 30q22 0 40 -8.5t31 -22.5t20 -33t7 -40q0 -44 -29 -74t-73 -30q-21 0 -39.5 8.5 t-32 23t-21 33.5t-7.5 39zM449 1223q0 39 26.5 66.5t65.5 27.5t64.5 -27.5t25.5 -66.5t-26.5 -65.5t-65.5 -26.5t-64.5 27t-25.5 65z" />
<glyph unicode="&#x152;" horiz-adv-x="1512" d="M64 618q0 81 6 175t24 187t50.5 179t86 152t130.5 105.5t183 39.5q47 0 86 -10t72 -28l750 8l10 -388l-148 -10l-20 206l-364 -8l-4 -446h304v-144l-306 -18l-4 -446l374 14v220h148l10 -398l-794 -2q-41 -20 -88.5 -31t-103.5 -11q-84 0 -146 30.5t-106.5 81.5 t-73.5 118t-46 139.5t-23.5 146.5t-6.5 138zM252 602q0 -37 2 -84.5t9.5 -97t22.5 -97t39.5 -84.5t61.5 -60t89 -23q65 0 110 33t74.5 86.5t46 120.5t24.5 134.5t9.5 129.5t1.5 106q0 34 -2 84.5t-9 106t-21 111.5t-38.5 100.5t-61 72t-88.5 27.5q-66 0 -111.5 -35.5 t-75.5 -93.5t-47 -130.5t-25 -146.5t-9.5 -142.5t-1.5 -117.5z" />
<glyph unicode="&#x153;" horiz-adv-x="1195" d="M50 476q0 50 6 112t20.5 125.5t39 123.5t61 106.5t86.5 74.5t117 28q80 0 136 -40.5t92 -103.5q35 62 90 100t138 38q105 0 166 -33.5t92.5 -92t40.5 -138t9 -170.5q0 -82 -6 -160l-432 -8q1 -21 3 -50.5t6.5 -62t13.5 -64t23 -57t34.5 -41t49.5 -15.5q31 0 53 16.5 t36.5 41t22 53.5t10.5 55h176q-9 -57 -30 -115t-56 -105t-85 -76.5t-117 -29.5q-46 0 -83.5 11.5t-67.5 32t-53.5 49t-41.5 63.5q-19 -35 -43 -65t-54 -52t-66 -34.5t-79 -12.5q-62 0 -109 23.5t-81 62t-57 89.5t-36.5 106t-19 111t-5.5 104zM210 474q0 -21 2 -53.5t8 -69.5 t16.5 -73.5t26.5 -66.5t39 -48.5t54 -18.5q38 0 65.5 23t47 59.5t31.5 81.5t18.5 90.5t9 85.5t2.5 66q0 21 -2 54t-7.5 70t-15.5 74t-26 67t-39.5 48.5t-55.5 18.5q-39 0 -66.5 -23.5t-47 -60.5t-31.5 -82.5t-18.5 -91t-8.5 -85.5t-2 -65zM706 582h258q3 21 3.5 41t0.5 41 q0 30 -3.5 68t-15.5 72t-35.5 57t-63.5 23q-36 0 -60 -15.5t-40 -40.5t-25 -57.5t-13 -66t-5 -65.5t-1 -57z" />
<glyph unicode="&#x178;" horiz-adv-x="958" d="M-10 1222l10 194h406l16 -180l-116 -10l170 -540l188 540l-124 -4l10 194l406 10l14 -190l-124 -10l-288 -702l-4 -330l140 4l-10 -180l-412 -10l-6 186h118l-2 334l-268 698zM238 1592q0 44 30 74t74 30q22 0 40 -8.5t31 -22.5t20 -33t7 -40q0 -44 -29 -74t-73 -30 q-21 0 -39.5 8.5t-32 23t-21 33.5t-7.5 39zM538 1592q0 39 26.5 66.5t65.5 27.5t64.5 -27.5t25.5 -66.5t-26.5 -65.5t-65.5 -26.5t-64.5 27t-25.5 65z" />
<glyph unicode="&#x2c6;" horiz-adv-x="462" d="M0 1162l162 242l136 10l164 -252l-142 -30l-92 174l-88 -174z" />
<glyph unicode="&#x2dc;" horiz-adv-x="486" d="M0 1300q12 14 29.5 31t38 31.5t42.5 24t42 9.5q26 0 48 -12.5t43.5 -27.5t44 -27.5t50.5 -12.5q30 0 60 19.5t48 40.5l40 -122q-14 -12 -31.5 -24t-37 -22t-40 -16t-39.5 -6q-26 0 -50.5 13t-47.5 28t-45.5 28t-44.5 13q-12 0 -28 -10.5t-32 -25t-29.5 -29.5t-20.5 -23z " />
<glyph unicode="&#x2000;" horiz-adv-x="916" />
<glyph unicode="&#x2001;" horiz-adv-x="1832" />
<glyph unicode="&#x2002;" horiz-adv-x="916" />
<glyph unicode="&#x2003;" horiz-adv-x="1832" />
<glyph unicode="&#x2004;" horiz-adv-x="610" />
<glyph unicode="&#x2005;" horiz-adv-x="458" />
<glyph unicode="&#x2006;" horiz-adv-x="305" />
<glyph unicode="&#x2007;" horiz-adv-x="305" />
<glyph unicode="&#x2008;" horiz-adv-x="229" />
<glyph unicode="&#x2009;" horiz-adv-x="366" />
<glyph unicode="&#x200a;" horiz-adv-x="101" />
<glyph unicode="&#x2010;" horiz-adv-x="767" d="M71 834l628 4l-10 -180l-612 -10z" />
<glyph unicode="&#x2011;" horiz-adv-x="767" d="M71 834l628 4l-10 -180l-612 -10z" />
<glyph unicode="&#x2012;" horiz-adv-x="767" d="M71 834l628 4l-10 -180l-612 -10z" />
<glyph unicode="&#x2013;" horiz-adv-x="939" d="M71 834l800 4l-10 -180l-784 -10z" />
<glyph unicode="&#x2014;" horiz-adv-x="1739" d="M71 834l1600 4l-10 -180l-1584 -10z" />
<glyph unicode="&#x2018;" horiz-adv-x="316" d="M34 1180q0 75 34.5 138t97.5 104l54 -42q-14 -12 -29.5 -34t-18.5 -40q24 -2 45 -13t37 -27.5t25 -38.5t9 -47q0 -26 -10 -49t-27.5 -40t-41 -27t-49.5 -10t-49 10t-40 27t-27 40t-10 49z" />
<glyph unicode="&#x2019;" horiz-adv-x="308" d="M24 1294q0 26 10 49.5t27 41t40 27.5t49 10t49.5 -10t41 -27.5t27.5 -41t10 -49.5q0 -75 -35.5 -138t-98.5 -102l-52 42q12 12 28.5 33t19.5 39q-25 2 -46 13t-36.5 27.5t-24.5 38.5t-9 47z" />
<glyph unicode="&#x201a;" horiz-adv-x="356" d="M50 114q0 26 10 49.5t27 41t40 27.5t49 10t49.5 -10t41 -27.5t27.5 -41t10 -49.5q0 -75 -35.5 -138t-98.5 -102l-52 42q12 12 28.5 33t19.5 39q-25 2 -46 13t-36.5 27.5t-24.5 38.5t-9 47z" />
<glyph unicode="&#x201c;" horiz-adv-x="616" d="M34 1180q0 75 34.5 138t97.5 104l54 -42q-14 -12 -29.5 -34t-18.5 -40q24 -2 45 -13t37 -27.5t25 -38.5t9 -47q0 -26 -10 -49t-27.5 -40t-41 -27t-49.5 -10t-49 10t-40 27t-27 40t-10 49zM334 1180q0 75 34.5 138t97.5 104l54 -42q-14 -12 -29.5 -34t-18.5 -40 q24 -2 45 -13t37 -27.5t25 -38.5t9 -47q0 -26 -10 -49t-27.5 -40t-41 -27t-49.5 -10t-49 10t-40 27t-27 40t-10 49z" />
<glyph unicode="&#x201d;" horiz-adv-x="608" d="M24 1294q0 26 10 49.5t27 41t40 27.5t49 10t49.5 -10t41 -27.5t27.5 -41t10 -49.5q0 -75 -35.5 -138t-98.5 -102l-52 42q12 12 28.5 33t19.5 39q-25 2 -46 13t-36.5 27.5t-24.5 38.5t-9 47zM324 1294q0 26 10 49.5t27 41t40 27.5t49 10t49.5 -10t41 -27.5t27.5 -41 t10 -49.5q0 -75 -35.5 -138t-98.5 -102l-52 42q12 12 28.5 33t19.5 39q-25 2 -46 13t-36.5 27.5t-24.5 38.5t-9 47z" />
<glyph unicode="&#x201e;" horiz-adv-x="656" d="M50 114q0 26 10 49.5t27 41t40 27.5t49 10t49.5 -10t41 -27.5t27.5 -41t10 -49.5q0 -75 -35.5 -138t-98.5 -102l-52 42q12 12 28.5 33t19.5 39q-25 2 -46 13t-36.5 27.5t-24.5 38.5t-9 47zM350 114q0 26 10 49.5t27 41t40 27.5t49 10t49.5 -10t41 -27.5t27.5 -41 t10 -49.5q0 -75 -35.5 -138t-98.5 -102l-52 42q12 12 28.5 33t19.5 39q-25 2 -46 13t-36.5 27.5t-24.5 38.5t-9 47z" />
<glyph unicode="&#x2022;" horiz-adv-x="504" d="M50 720q0 42 16 79t43 65t64 44t79 16t79 -16t64 -44t43 -65t16 -79q0 -41 -16 -78t-43 -64.5t-64 -43.5t-79 -16t-79 16t-64 43.5t-43 64.5t-16 78z" />
<glyph unicode="&#x2026;" horiz-adv-x="1182" d="M50 114q0 26 10 49.5t27 41t40 27.5t49 10t49.5 -10t41 -27.5t27.5 -41t10 -49.5t-10 -49t-27.5 -40t-41 -27t-49.5 -10t-49 10t-40 27t-27 40t-10 49zM464 114q0 26 10 49.5t27 41t40 27.5t49 10t49.5 -10t41 -27.5t27.5 -41t10 -49.5t-10 -49t-27.5 -40t-41 -27 t-49.5 -10t-49 10t-40 27t-27 40t-10 49zM878 114q0 26 10 49.5t27 41t40 27.5t49 10t49.5 -10t41 -27.5t27.5 -41t10 -49.5t-10 -49t-27.5 -40t-41 -27t-49.5 -10t-49 10t-40 27t-27 40t-10 49z" />
<glyph unicode="&#x202f;" horiz-adv-x="366" />
<glyph unicode="&#x2039;" horiz-adv-x="704" d="M12 548l570 336l68 -160l-454 -236l454 -226l-68 -160l-558 318z" />
<glyph unicode="&#x203a;" horiz-adv-x="704" d="M54 262l454 226l-454 236l68 160l570 -336l-12 -128l-558 -318z" />
<glyph unicode="&#x205f;" horiz-adv-x="458" />
<glyph unicode="&#x20ac;" horiz-adv-x="1024" d="M50 546l24 132l124 2v34v26l-108 -2l24 132l96 2q13 70 39 133t70 111t108 76t153 28q75 0 125.5 -35.5t88.5 -98.5l2 132l140 -2l-18 -408l-126 4q-7 42 -21 88t-38 85t-60 64t-87 25t-88.5 -16.5t-64 -44t-43 -64.5t-26.5 -77l254 2l-36 -128l-232 -4q-2 -6 -2 -11.5 v-10.5q0 -9 1 -19t1 -21l226 2l-34 -128l-174 -2q10 -38 26 -73t41 -61.5t59 -42t80 -15.5q58 0 98 22.5t64.5 60t36.5 84.5t15 97h126q0 -82 -20.5 -157t-62.5 -132t-107.5 -91t-155.5 -34q-78 0 -137.5 28.5t-102.5 75.5t-70.5 108t-41.5 126z" />
<glyph unicode="&#x2122;" horiz-adv-x="1010" d="M60 1234l4 152l348 10l8 -152l-66 -8l-4 90l-70 -2l-4 -336l52 2l-4 -70l-162 -2l-2 70h44v332l-76 -4l2 -82h-70zM446 1314l2 68h170l78 -310l102 318h150l-2 -72l-48 2l-8 -336h38l2 -72h-160l2 72h44l2 272l-86 -290l-80 -2l-64 286l-6 -262h44l2 -70l-180 2v70l58 -2 l4 322z" />
<glyph unicode="&#xe000;" horiz-adv-x="1030" d="M0 0v1030h1030v-1030h-1030z" />
</font>
</defs>
</svg>
